<?xml version="1.0" standalone="no"?> <!DOCTYPE svg PUBLIC "-//W3C//DTD SVG 1.0//EN" "http://www.w3.org/TR/2001/REC-SVG-20010904/DTD/svg10.dtd" > <svg xmlns="http://www.w3.org/2000/svg" width="100%" height="100%">
<defs >
<font horiz-adv-x="469" ><font-face
    font-family="PingFangSC"
    units-per-em="1000"
    panose-1="2 0 5 3 0 0 0 0 0 0"
    ascent="952"
    descent="-212"
    alphabetic="0" />
<missing-glyph horiz-adv-x="1000" />
<glyph unicode=" " glyph-name="Identity.3" horiz-adv-x="333" />
<glyph unicode="!" glyph-name="Identity.4" horiz-adv-x="333" d="M120 714H213L198 192H136L120 714ZM166 119Q193 119 210 102T227 60Q227 34 210 17Q191 0 166 0T124 17Q106 35 106 60Q106 86 124 102Q140 119 166 119Z" />
<glyph unicode="&quot;" glyph-name="Identity.5" horiz-adv-x="427" d="M263 714H347L337 465H272L263 714ZM80 714H164L155 465H90L80 714Z" />
<glyph unicode="#" glyph-name="Identity.6" horiz-adv-x="600" d="M74 545H188L215 714H281L254 545H406L433 714H499L472 545H573L564 485H463L422 228H535L526 168H413L386 0H319L346 168H195L168 0H101L128 168H27L36 228H137L178 485H65L74 545ZM204 228H355L396
485H245L204 228Z" />
<glyph unicode="$" glyph-name="Identity.7" horiz-adv-x="600" d="M273 727V809H323V727Q411 721 465 676Q525 625 540 520H460Q450 591 407 626Q375 652 323 658V396Q425 359 446 350Q552 294 552 190Q552 85 478 32Q418 -9 323 -13V-101H273V-13Q174 -7 119
49Q59 109 49 228H130Q139 139 178 98Q211 63 273 57V334Q215 356 167 373Q60 426 60 532Q60 631 131 681Q188 724 273 727ZM323 316V57Q388 62 426 91Q470 126 470 188Q470 261 364 302Q336 312 323 316ZM273 414V658Q220 655 187 630Q142 598 142 532Q142 465
248 423L273 414Z" />
<glyph unicode="%" glyph-name="Identity.8" horiz-adv-x="970" d="M739 391Q819 391 862 332Q900 280 900 195Q900 111 862 58Q818 0 739 0Q659 0 616 58Q578 111 578 195Q578 282 616 332Q657 391 739 391ZM653 728H717L317 -14H252L653 728ZM231 714Q311 714
354 655Q392 603 392 518Q392 434 354 381Q310 323 231 323Q151 323 108 381Q70 434 70 518Q70 605 108 655Q149 714 231 714ZM739 337Q693 337 672 295Q653 260 653 195Q653 132 672 97Q694 54 739 54Q783 54 806 98Q825 136 825 195Q825 256 806 294Q784 337
739 337ZM231 660Q185 660 164 618Q145 583 145 518Q145 455 164 420Q186 377 231 377Q275 377 298 421Q317 459 317 518Q317 580 297 617Q276 660 231 660Z" />
<glyph unicode="&amp;" glyph-name="Identity.9" horiz-adv-x="726" d="M305 664Q258 664 234 640Q208 620 208 577Q208 548 240 504Q253 486 287 447Q296 453 308 459Q401 513 401 576Q401 614 377 638Q351 664 305 664ZM221 410Q175 459 156 489Q127 532 127
576Q127 647 181 689Q230 728 307 728Q383 728 431 689Q483 649 483 581Q483 511 416 456Q409 451 379 431T331 401L510 212Q548 295 556 418H637Q631 260 569 150L711 0H607L524 88Q434 -14 292 -14Q184 -14 115 38Q42 95 42 195Q42 294 135 362L221 410ZM289
59Q401 59 470 145L266 362Q219 332 177 300Q124 256 124 194Q124 134 172 95Q217 59 289 59Z" />
<glyph unicode="&apos;" glyph-name="Identity.10" horiz-adv-x="244" d="M80 714H164L155 465H90L80 714Z" />
<glyph unicode="(" glyph-name="Identity.11" horiz-adv-x="333" d="M205 827H275Q213 726 180 620Q136 491 136 360T180 100Q212 -5 275 -107H205Q140 -12 102 99Q58 225 58 359Q58 495 102 621Q140 733 205 827Z" />
<glyph unicode=")" glyph-name="Identity.12" horiz-adv-x="333" d="M58 827H128Q191 733 231 621Q275 491 275 359Q275 229 231 99Q191 -12 128 -107H58Q119 -5 153 100Q197 234 197 360T153 620Q119 726 58 827Z" />
<glyph unicode="*" glyph-name="Identity.13" horiz-adv-x="506" d="M218 714H288L281 519L459 587L481 521L297 466L421 319L367 276L253 434L139 276L85 319L209 466L25 521L47 587L226 519L218 714Z" />
<glyph unicode="+" glyph-name="Identity.14" horiz-adv-x="605" d="M269 511H337V293H555V225H337V6H269V225H50V293H269V511Z" />
<glyph unicode="," glyph-name="Identity.15" horiz-adv-x="264" d="M132 119Q166 119 187 91Q207 63 207 21Q207 -45 168 -96Q129 -144 64 -161V-112Q104 -98 128 -68Q150 -37 150 -1Q140 -5 128 -5Q103 -5 85 13T67 57Q67 86 86 102Q102 119 132 119Z" />
<glyph unicode="-" glyph-name="Identity.16" horiz-adv-x="605" d="M50 293H555V225H50V293Z" />
<glyph unicode="." glyph-name="Identity.17" horiz-adv-x="264" d="M132 119Q157 119 175 101T193 57Q193 32 175 14T132 -4Q106 -4 89 14Q71 32 71 57Q71 83 89 101Q106 119 132 119Z" />
<glyph unicode="/" glyph-name="Identity.18" horiz-adv-x="500" d="M392 820H463L109 -100H37L392 820Z" />
<glyph unicode="0" glyph-name="Identity.19" horiz-adv-x="600" d="M300 728Q428 728 493 615Q550 519 550 357T493 99Q427 -14 300 -14Q172 -14 107 99Q50 195 50 357T107 615Q171 728 300 728ZM396 658T300 658T162 555Q132 483 132 357Q132 232 162 159Q204
56 300 56T438 159Q469 235 469 357Q469 481 438 555Q396 658 300 658Z" />
<glyph unicode="1" glyph-name="Identity.20" horiz-adv-x="401" d="M230 714H294V0H212V614Q146 546 44 516V598Q96 612 144 641Q194 673 230 714Z" />
<glyph unicode="2" glyph-name="Identity.21" horiz-adv-x="600" d="M310 728Q408 728 473 671Q537 613 537 520Q537 428 467 352Q426 309 319 237Q183 146 163 73H538V0H62Q62 99 133 177Q179 229 288 304Q373 365 400 393Q455 453 455 521Q455 586 416 622T307
658Q232 658 194 608Q151 559 150 465H68Q68 584 135 656Q201 728 310 728Z" />
<glyph unicode="3" glyph-name="Identity.22" horiz-adv-x="600" d="M307 728Q411 728 473 676Q535 623 535 534Q535 413 418 374Q482 354 514 313Q550 271 550 208Q550 111 482 49Q413 -14 302 -14Q202 -14 136 38Q60 101 51 221H134Q137 137 190 93Q236 56 302
56Q378 56 425 100Q468 143 468 205Q468 269 426 305Q385 340 310 340H252V404H307Q378 404 416 436Q454 469 454 529Q454 588 417 622Q379 657 308 657Q235 657 196 619Q155 581 147 508H66Q75 611 142 670Q204 728 307 728Z" />
<glyph unicode="4" glyph-name="Identity.23" horiz-adv-x="600" d="M384 714H461V229H577V162H461V0H383V162H24V240L384 714ZM380 607L93 229H383V607H380Z" />
<glyph unicode="5" glyph-name="Identity.24" horiz-adv-x="600" d="M105 714H520V641H172L148 402H152Q182 438 229 456Q269 473 320 473Q422 473 485 409Q549 342 549 228Q549 120 472 51Q399 -14 294 -14Q199 -14 133 37Q59 94 51 192H132Q138 124 186 88Q229
56 295 56Q370 56 419 104Q468 153 468 227Q468 311 422 359Q379 406 300 406Q249 406 209 384Q166 363 145 320H67L105 714Z" />
<glyph unicode="6" glyph-name="Identity.25" horiz-adv-x="600" d="M310 728Q508 728 538 537H457Q433 659 309 659Q224 659 177 576Q130 500 130 376Q130 363 131 350H135Q163 407 212 436Q259 467 323 467Q425 467 488 401Q550 334 550 231Q550 126 482 56Q412
-14 309 -14Q180 -14 113 83Q51 173 51 338Q51 510 118 616Q188 728 310 728ZM307 399Q236 399 190 351Q144 304 144 229Q144 153 188 106Q233 55 307 55Q378 55 424 104Q469 155 469 231Q469 306 425 352Q381 399 307 399Z" />
<glyph unicode="7" glyph-name="Identity.26" horiz-adv-x="547" d="M34 714H503V647L240 0H153L419 639H34V714Z" />
<glyph unicode="8" glyph-name="Identity.27" horiz-adv-x="600" d="M187 728T300 728T475 670Q533 617 533 539Q533 482 506 443Q475 400 421 381V379Q477 365 516 317Q558 266 558 197Q558 102 492 45Q422 -14 300 -14Q176 -14 108 45Q42 102 42 197Q42 266
84 317Q124 366 179 379V381Q123 400 94 443Q67 482 67 539Q67 618 125 670Q187 728 300 728ZM300 661Q223 661 181 622Q144 589 144 536Q144 481 177 448Q217 408 300 408Q381 408 423 448Q456 481 456 536Q456 588 419 622Q375 661 300 661ZM387 344T300 344T167
301Q123 263 123 197Q123 132 167 94Q213 53 300 53Q386 53 434 95Q477 135 477 197Q477 261 434 301Q387 344 300 344Z" />
<glyph unicode="9" glyph-name="Identity.28" horiz-adv-x="600" d="M292 728Q421 728 487 632Q550 542 550 376Q550 208 483 98Q410 -14 291 -14Q92 -14 63 177H144Q167 55 292 55Q374 55 424 138Q471 218 471 338Q471 340 471 348T470 364H466Q439 310 389 278Q339
247 278 247Q175 247 112 315Q51 379 51 483Q51 590 119 658Q186 728 292 728ZM294 659Q221 659 176 610Q132 562 132 483Q132 406 176 362Q220 315 294 315Q363 315 411 363Q457 412 457 485Q457 559 413 608Q368 659 294 659Z" />
<glyph unicode=":" glyph-name="Identity.29" horiz-adv-x="264" d="M132 487Q157 487 175 469T193 426Q193 400 175 382Q156 365 132 365Q106 365 89 382Q71 400 71 426Q71 451 89 469Q105 487 132 487ZM132 121Q157 121 175 103T193 60Q193 34 175 16Q156 -1
132 -1Q106 -1 89 16Q71 34 71 60Q71 85 89 103Q106 121 132 121Z" />
<glyph unicode=";" glyph-name="Identity.30" horiz-adv-x="264" d="M132 487Q159 487 176 470T193 426Q193 400 176 381Q157 365 132 365Q106 365 88 381Q71 398 71 426T88 470Q104 487 132 487ZM132 119Q166 119 187 91Q207 63 207 21Q207 -45 168 -96Q129 -144
64 -161V-112Q104 -98 128 -68Q150 -37 150 -1Q140 -5 128 -5Q103 -5 85 13T67 57Q67 86 86 102Q102 119 132 119Z" />
<glyph unicode="&lt;" glyph-name="Identity.31" horiz-adv-x="605" d="M555 515V441L144 258L555 76V1L50 227V290L555 515Z" />
<glyph unicode="=" glyph-name="Identity.32" horiz-adv-x="605" d="M50 395H555V328H50V395ZM50 190H555V122H50V190Z" />
<glyph unicode="&gt;" glyph-name="Identity.33" horiz-adv-x="605" d="M50 515L555 290V227L50 1V76L461 258L50 441V515Z" />
<glyph unicode="?" glyph-name="Identity.34" horiz-adv-x="537" d="M277 728Q375 728 431 675Q487 624 487 534Q487 468 450 417Q436 400 368 340Q337 314 322 286Q303 254 303 212V189H222V212Q222 262 241 299Q259 342 342 415Q362 435 376 451Q405 489 405
530Q405 590 372 623Q337 658 273 658Q199 658 162 609Q130 566 130 494H50Q50 598 109 662Q170 728 277 728ZM263 119Q289 119 306 102T323 60Q323 34 306 17Q287 0 263 0Q237 0 220 17Q202 35 202 60Q202 86 220 102Q236 119 263 119Z" />
<glyph unicode="@" glyph-name="Identity.35" horiz-adv-x="858" d="M441 728Q598 728 689 634Q773 548 773 420Q773 314 706 226Q640 143 562 143Q499 143 493 209Q442 141 367 141Q305 141 265 184Q226 226 226 291Q226 404 294 484Q359 564 449 564Q521 564
545 489L560 545H625L554 284Q542 240 542 223Q542 198 570 198Q616 198 663 257Q717 326 717 419Q717 526 645 596Q568 672 437 672Q299 672 209 581Q121 492 121 352Q121 200 210 118Q295 39 441 39Q546 39 625 77Q695 112 736 171H806Q753 81 655 33Q558 -14
441 -14Q262 -14 158 85Q52 187 52 354Q52 511 158 616Q269 728 441 728ZM460 501Q394 501 347 439Q296 376 296 288Q296 247 315 224Q334 200 372 200Q410 200 446 230T494 300L516 382Q526 425 526 430Q526 457 509 477Q490 501 460 501Z" />
<glyph unicode="A" glyph-name="Identity.36" horiz-adv-x="657" d="M281 714H376L657 0H568L492 200H164L88 0H0L281 714ZM190 269H466L331 626H327L190 269Z" />
<glyph unicode="B" glyph-name="Identity.37" horiz-adv-x="677" d="M72 714H391Q490 714 549 666Q606 618 606 534Q606 474 574 430Q541 391 487 373Q556 361 596 315T636 199Q636 94 562 43Q497 0 389 0H72V714ZM154 645V402H371Q445 402 485 433Q525 465 525
526Q525 586 486 616Q448 645 372 645H154ZM154 334V69H382Q454 69 501 97Q554 130 554 200Q554 268 508 302Q466 334 382 334H154Z" />
<glyph unicode="C" glyph-name="Identity.38" horiz-adv-x="728" d="M380 728Q499 728 580 665T676 495H597Q582 572 521 615Q463 655 379 655Q254 655 187 568Q124 487 124 354Q124 219 186 142Q252 59 377 59Q462 59 522 104Q586 153 607 245H686Q662 119 574
51Q491 -14 377 -14Q211 -14 122 96Q42 194 42 354T124 615Q213 728 380 728Z" />
<glyph unicode="D" glyph-name="Identity.39" horiz-adv-x="706" d="M72 714H328Q498 714 584 616Q664 525 664 357Q664 192 578 98Q488 0 320 0H72V714ZM154 643V71H306Q445 71 516 145Q583 218 583 357Q583 500 521 570Q455 643 315 643H154Z" />
<glyph unicode="E" glyph-name="Identity.40" horiz-adv-x="637" d="M72 714H578V643H154V404H554V333H154V71H595V0H72V714Z" />
<glyph unicode="F" glyph-name="Identity.41" horiz-adv-x="577" d="M72 714H550V643H154V403H529V332H154V0H72V714Z" />
<glyph unicode="G" glyph-name="Identity.42" horiz-adv-x="748" d="M377 728Q512 728 590 663Q665 602 684 485H602Q586 565 530 609Q472 655 377 655Q261 655 192 573Q124 493 124 354Q124 219 190 141Q261 58 400 58Q454 58 512 74Q562 88 602 114V296H378V367H683V75Q634
35 558 10Q480 -14 392 -14Q222 -14 129 94Q42 195 42 354Q42 514 128 616Q219 728 377 728Z" />
<glyph unicode="H" glyph-name="Identity.43" horiz-adv-x="720" d="M72 714H154V404H567V714H649V0H567V333H154V0H72V714Z" />
<glyph unicode="I" glyph-name="Identity.44" horiz-adv-x="237" d="M78 714H159V0H78V714Z" />
<glyph unicode="J" glyph-name="Identity.45" horiz-adv-x="517" d="M364 714H446V228Q446 112 398 52Q344 -14 225 -14Q126 -14 71 41Q15 97 15 203V228H97V204Q97 59 227 59Q298 59 332 102Q364 143 364 231V714Z" />
<glyph unicode="K" glyph-name="Identity.46" horiz-adv-x="690" d="M538 714H645L322 408L690 0H580L265 355L154 250V0H72V714H154V343L538 714Z" />
<glyph unicode="L" glyph-name="Identity.47" horiz-adv-x="588" d="M72 714H153V71H566V0H72V714Z" />
<glyph unicode="M" glyph-name="Identity.48" horiz-adv-x="882" d="M72 714H174L440 105H443L708 714H810V0H728V568H725L478 0H404L157 568H154V0H72V714Z" />
<glyph unicode="N" glyph-name="Identity.49" horiz-adv-x="719" d="M72 714H158L562 133H565V714H647V0H563L157 587H154V0H72V714Z" />
<glyph unicode="O" glyph-name="Identity.50" horiz-adv-x="767" d="M223 728T384 728T637 621Q725 518 725 356Q725 196 637 93Q544 -14 383 -14Q223 -14 130 93Q42 194 42 356Q42 519 130 620Q223 728 384 728ZM384 655Q260 655 190 570Q124 489 124 356Q124
224 190 143Q259 59 383 59Q506 59 576 141Q643 223 643 356Q643 491 576 573Q507 655 384 655Z" />
<glyph unicode="P" glyph-name="Identity.51" horiz-adv-x="642" d="M72 714H364Q610 714 610 504Q610 292 363 292H154V0H72V714ZM154 643V363H359Q444 363 487 398Q528 433 528 504Q528 576 486 608Q445 643 359 643H154Z" />
<glyph unicode="Q" glyph-name="Identity.52" horiz-adv-x="767" d="M223 728T384 728T637 621Q725 518 725 356Q725 196 637 93Q633 89 632 87Q666 43 714 -26L660 -73Q611 -3 578 41Q496 -14 383 -14Q223 -14 130 93Q42 194 42 356Q42 519 130 620Q223 728 384
728ZM384 655Q260 655 190 570Q124 489 124 356Q124 224 190 143Q259 59 383 59Q472 59 532 101Q470 180 412 241L461 288Q530 214 583 149Q643 228 643 356Q643 491 576 573Q507 655 384 655Z" />
<glyph unicode="R" glyph-name="Identity.53" horiz-adv-x="676" d="M72 714H380Q487 714 548 665Q612 613 612 515Q612 455 579 409Q544 362 482 347V345Q584 322 596 215L607 105Q613 40 645 0H556Q531 37 527 95L518 190Q512 254 473 281Q438 307 370 307H154V0H72V714ZM154
643V378H370Q448 378 491 415Q529 450 529 512Q529 578 492 610Q453 643 370 643H154Z" />
<glyph unicode="S" glyph-name="Identity.54" horiz-adv-x="632" d="M312 728Q434 728 502 673Q573 616 584 503H503Q490 580 443 618T308 656Q227 656 184 630Q133 600 133 539Q133 485 194 452Q220 437 325 407Q466 365 511 338Q600 284 600 187Q600 93 525
39Q449 -14 323 -14T125 40Q41 105 32 236H113Q124 143 178 99Q229 59 323 59Q411 59 465 92T519 182Q519 249 448 287Q421 303 297 339Q171 377 133 397Q51 445 51 535Q51 629 130 680Q200 728 312 728Z" />
<glyph unicode="T" glyph-name="Identity.55" horiz-adv-x="619" d="M17 714H602V643H350V0H269V643H17V714Z" />
<glyph unicode="U" glyph-name="Identity.56" horiz-adv-x="714" d="M72 714H154V273Q154 167 201 114Q251 58 357 58Q462 58 513 114Q560 169 560 273V714H642V274Q642 135 571 61Q497 -14 357 -14Q216 -14 144 60Q72 135 72 274V714Z" />
<glyph unicode="V" glyph-name="Identity.57" horiz-adv-x="639" d="M5 714H95L318 89H321L544 714H634L370 0H269L5 714Z" />
<glyph unicode="W" glyph-name="Identity.58" horiz-adv-x="930" d="M5 714H97L254 115H258L421 714H510L672 115H676L833 714H925L720 0H629L467 595H464L301 0H210L5 714Z" />
<glyph unicode="X" glyph-name="Identity.59" horiz-adv-x="637" d="M24 714H125L318 436L512 714H613L367 371L632 0H531L318 306L106 0H5L268 371L24 714Z" />
<glyph unicode="Y" glyph-name="Identity.60" horiz-adv-x="662" d="M5 714H104L331 366L558 714H657L372 290V0H290V290L5 714Z" />
<glyph unicode="Z" glyph-name="Identity.61" horiz-adv-x="624" d="M55 714H575V646L131 71H599V0H25V67L470 643H55V714Z" />
<glyph unicode="[" glyph-name="Identity.62" horiz-adv-x="333" d="M44 827H289V760H118V-40H289V-107H44V827Z" />
<glyph unicode="\" glyph-name="Identity.63" horiz-adv-x="500" d="M37 820H108L463 -100H391L37 820Z" />
<glyph unicode="]" glyph-name="Identity.64" horiz-adv-x="333" d="M44 827H289V-107H44V-40H215V760H44V827Z" />
<glyph unicode="^" glyph-name="Identity.65" horiz-adv-x="518" d="M221 714H297L458 370H391L259 645L127 370H60L221 714Z" />
<glyph unicode="_" glyph-name="Identity.66" horiz-adv-x="500" d="M0 -73H500V-140H0V-73Z" />
<glyph unicode="`" glyph-name="Identity.67" horiz-adv-x="333" d="M71 722H162L263 576H208L71 722Z" />
<glyph unicode="a" glyph-name="Identity.68" horiz-adv-x="559" d="M287 531Q397 531 451 473Q497 421 497 332V0H422V87Q393 46 343 18Q285 -14 214 -14Q136 -14 90 25Q42 66 42 129Q42 218 113 262Q177 305 293 306L417 308V335Q417 465 282 465Q224 465 189
442Q149 418 137 368L58 374Q75 456 138 495Q195 531 287 531ZM417 248L298 246Q124 243 124 131Q124 95 153 72Q184 49 231 49Q304 49 361 97Q417 144 417 204V248Z" />
<glyph unicode="b" glyph-name="Identity.69" horiz-adv-x="586" d="M62 728H142V422Q202 531 313 531T486 448Q544 372 544 260Q544 144 486 68Q421 -14 309 -14Q190 -14 137 85V0H62V728ZM296 465Q224 465 183 409Q139 355 139 263V253Q139 166 178 112Q220
52 299 52Q382 52 425 113Q462 168 462 260Q462 353 423 405Q379 465 296 465Z" />
<glyph unicode="c" glyph-name="Identity.70" horiz-adv-x="547" d="M285 531Q381 531 439 486Q498 440 512 345H433Q422 405 385 435Q347 464 285 464Q210 464 166 407Q124 352 124 257Q124 161 165 108Q206 53 284 53Q417 53 435 187H515Q497 86 438 36T284
-14Q168 -14 103 64Q42 137 42 256T103 449Q169 531 285 531Z" />
<glyph unicode="d" glyph-name="Identity.71" horiz-adv-x="586" d="M444 728H524V0H449V85Q395 -14 277 -14Q164 -14 100 68Q42 142 42 260Q42 374 100 448Q162 531 273 531T444 422V728ZM290 465Q204 465 162 405Q124 354 124 260T161 113Q204 52 287 52Q364
52 408 112Q446 167 446 253V263Q446 352 403 409Q360 465 290 465Z" />
<glyph unicode="e" glyph-name="Identity.72" horiz-adv-x="555" d="M275 531Q400 531 463 447Q520 372 523 236H115Q121 148 162 101Q204 53 278 53Q341 53 381 85Q413 111 433 166H513Q495 92 443 44Q377 -14 278 -14Q167 -14 100 59Q32 133 32 259Q32 375 97
450Q163 531 275 531ZM277 464Q208 464 166 419Q125 375 117 298H440Q425 464 277 464Z" />
<glyph unicode="f" glyph-name="Identity.73" horiz-adv-x="373" d="M269 714H368V645H279Q244 645 230 628Q215 612 215 574V517H361V450H215V0H135V450H5V517H135V576Q135 641 168 677Q202 714 269 714Z" />
<glyph unicode="g" glyph-name="Identity.74" horiz-adv-x="591" d="M275 531Q392 531 449 428V517H529V36Q529 -212 293 -212Q187 -212 133 -170Q78 -128 64 -44H144Q153 -97 188 -121Q223 -147 293 -147Q449 -147 449 25V116Q392 12 275 12Q167 12 104 86Q42
157 42 270Q42 384 104 455Q167 531 275 531ZM287 465Q209 465 166 409Q124 358 124 270Q124 187 161 137Q204 79 286 79Q363 79 408 133Q450 185 450 270Q450 358 408 409Q364 465 287 465Z" />
<glyph unicode="h" glyph-name="Identity.75" horiz-adv-x="556" d="M62 728H142V432Q169 482 214 507Q256 531 308 531Q400 531 447 478Q495 426 495 326V0H415V314Q415 385 381 425Q345 464 281 464Q221 464 182 416Q142 369 142 295V0H62V728Z" />
<glyph unicode="i" glyph-name="Identity.76" horiz-adv-x="256" d="M102 712T128 712T171 695Q189 680 189 653Q189 628 171 610Q152 593 128 593T85 610Q68 627 68 653Q68 681 85 695Q102 712 128 712ZM88 517H168V0H88V517Z" />
<glyph unicode="j" glyph-name="Identity.77" horiz-adv-x="267" d="M138 712Q165 712 182 695Q199 680 199 653Q199 629 182 610Q163 593 138 593Q114 593 95 610Q78 627 78 653Q78 681 95 695Q112 712 138 712ZM98 517H178V-60Q178 -198 33 -198H-15V-131H27Q98
-131 98 -57V517Z" />
<glyph unicode="k" glyph-name="Identity.78" horiz-adv-x="529" d="M62 728H142V277L401 517H507L279 309L529 0H426L224 257L142 183V0H62V728Z" />
<glyph unicode="l" glyph-name="Identity.79" horiz-adv-x="235" d="M78 728H157V0H78V728Z" />
<glyph unicode="m" glyph-name="Identity.80" horiz-adv-x="855" d="M288 531Q407 531 450 433Q480 485 522 507Q560 531 613 531Q693 531 744 480Q793 426 793 339V0H713V326Q713 394 684 428Q655 463 588 463Q535 463 503 425Q468 387 468 324V0H388V326Q388
463 269 463Q213 463 178 419Q142 377 142 315V0H62V517H142V448Q200 531 288 531Z" />
<glyph unicode="n" glyph-name="Identity.81" horiz-adv-x="559" d="M304 531Q497 531 497 318V0H417V312Q417 463 281 463Q227 463 188 424Q146 382 142 312V0H62V517H142V441Q169 484 211 507Q253 531 304 531Z" />
<glyph unicode="o" glyph-name="Identity.82" horiz-adv-x="586" d="M176 531T293 531T478 451Q544 374 544 258Q544 143 479 67Q408 -14 293 -14Q177 -14 108 67Q42 142 42 258T108 451Q176 531 293 531ZM293 464Q210 464 165 401Q124 345 124 258Q124 172 165
116Q210 53 293 53Q374 53 422 116Q463 174 463 258Q463 343 422 401Q374 464 293 464Z" />
<glyph unicode="p" glyph-name="Identity.83" horiz-adv-x="586" d="M309 531Q421 531 485 448Q544 372 544 257Q544 144 486 68Q422 -14 313 -14Q202 -14 142 94V-198H62V517H137V432Q192 531 309 531ZM299 465Q220 465 178 404Q139 350 139 262V252Q139 161
183 107Q226 52 296 52Q379 52 423 110Q462 164 462 257Q462 347 425 403Q382 465 299 465Z" />
<glyph unicode="q" glyph-name="Identity.84" horiz-adv-x="586" d="M162 531T277 531T449 432V517H524V-198H444V94Q384 -14 273 -14Q163 -14 99 68Q42 143 42 257Q42 374 100 448Q162 531 277 531ZM287 465Q202 465 161 403Q124 350 124 257T163 110Q206 52
290 52Q359 52 403 107Q446 164 446 252V262Q446 349 408 404Q365 465 287 465Z" />
<glyph unicode="r" glyph-name="Identity.85" horiz-adv-x="365" d="M289 531Q332 531 360 519V439Q324 450 283 450Q222 450 182 397Q141 347 141 274V0H62V517H141V427Q162 473 195 498Q236 531 289 531Z" />
<glyph unicode="s" glyph-name="Identity.86" horiz-adv-x="505" d="M245 531Q436 531 457 370H379Q368 420 339 440Q306 464 244 464Q189 464 160 444Q127 424 127 390Q127 356 171 334Q196 322 278 300Q370 278 411 252Q473 213 473 146Q473 -14 254 -14Q50
-14 32 165H110Q119 105 153 77Q186 53 252 53Q391 53 391 141Q391 184 342 208Q317 220 232 241Q139 264 104 287Q45 322 45 388Q45 453 103 492Q157 531 245 531Z" />
<glyph unicode="t" glyph-name="Identity.87" horiz-adv-x="355" d="M200 684V517H328V450H200V121Q200 91 211 80Q222 67 249 67H315V0H237Q173 0 146 33Q121 62 121 121V450H17V517H121V651L200 684Z" />
<glyph unicode="u" glyph-name="Identity.88" horiz-adv-x="560" d="M62 517H142V201Q142 126 173 91Q205 54 275 54Q325 54 367 94Q409 136 418 202V517H498V0H418V80Q354 -14 250 -14Q62 -14 62 197V517Z" />
<glyph unicode="v" glyph-name="Identity.89" horiz-adv-x="482" d="M5 517H93L241 100L389 517H477L281 0H200L5 517Z" />
<glyph unicode="w" glyph-name="Identity.90" horiz-adv-x="755" d="M5 517H93L220 98L340 517H415L535 98L662 517H750L574 0H498L378 416L256 0H181L5 517Z" />
<glyph unicode="x" glyph-name="Identity.91" horiz-adv-x="509" d="M27 517H121L255 333L388 517H482L299 274L504 0H409L255 215L100 0H5L210 274L27 517Z" />
<glyph unicode="y" glyph-name="Identity.92" horiz-adv-x="496" d="M5 517H92L250 109L403 517H491L208 -198H121L210 12L5 517Z" />
<glyph unicode="z" glyph-name="Identity.93" horiz-adv-x="487" d="M35 517H446V461L129 67H462V0H25V58L341 450H35V517Z" />
<glyph unicode="{" glyph-name="Identity.94" horiz-adv-x="333" d="M243 827H312V764H256Q190 764 190 690V482Q190 392 108 360Q190 327 190 238V29Q190 -44 256 -44H312V-107H243Q181 -107 148 -68Q116 -33 116 31V235Q116 279 97 301Q76 325 21 327V393Q77
396 97 419Q116 441 116 485V688Q116 753 148 788Q181 827 243 827Z" />
<glyph unicode="|" glyph-name="Identity.95" horiz-adv-x="195" d="M64 860H131V-140H64V860Z" />
<glyph unicode="}" glyph-name="Identity.96" horiz-adv-x="333" d="M21 827H90Q150 827 185 788Q217 751 217 688V485Q217 440 236 418Q257 396 312 393V327Q257 326 236 301Q217 281 217 235V31Q217 -31 185 -68Q150 -107 90 -107H21V-44H77Q143 -44 143 29V238Q143
327 225 360Q143 391 143 482V690Q143 764 77 764H21V827Z" />
<glyph unicode="~" glyph-name="Identity.97" horiz-adv-x="500" d="M147 435Q195 435 260 391Q326 348 353 348Q386 348 432 418L482 382Q417 284 353 284Q307 284 242 328Q177 371 147 371Q112 371 68 302L18 337Q80 435 147 435Z" />
<glyph unicode="" glyph-name="Identity.98" horiz-adv-x="0" />
</font>
</defs>
</svg>
