<?xml version="1.0" standalone="no"?>
<!DOCTYPE svg PUBLIC "-//W3C//DTD SVG 1.1//EN" "http://www.w3.org/Graphics/SVG/1.1/DTD/svg11.dtd" >
<svg xmlns="http://www.w3.org/2000/svg">
<metadata>Generated by IcoMoon</metadata>
<defs>
<font id="n8h5" horiz-adv-x="1024">
<font-face units-per-em="1024" ascent="960" descent="-64" />
<missing-glyph horiz-adv-x="1024" />
<glyph unicode="&#x20;" horiz-adv-x="512" d="" />
<glyph unicode="&#xe900;" glyph-name="arrow-right-circle" d="M64 448c0-247.424 200.576-448 448-448s448 200.576 448 448v0c0 247.424-200.576 448-448 448s-448-200.576-448-448v0zM1024 448c0-282.77-229.23-512-512-512s-512 229.23-512 512v0c0 282.77 229.23 512 512 512s512-229.23 512-512v0zM288 480c-17.673 0-32-14.327-32-32s14.327-32 32-32v0h370.752l-137.408-137.344c-5.798-5.798-9.384-13.808-9.384-22.656 0-17.695 14.345-32.040 32.040-32.040 8.848 0 16.858 3.586 22.656 9.384v0l192 192c5.808 5.794 9.401 13.805 9.401 22.656s-3.593 16.862-9.401 22.655l-192.001 192.001c-5.798 5.798-13.808 9.384-22.656 9.384-17.695 0-32.040-14.345-32.040-32.040 0-8.848 3.586-16.858 9.384-22.656v0l137.408-137.344h-370.752z" />
<glyph unicode="&#xe901;" glyph-name="play" horiz-adv-x="837" d="M97.657 887.827c-10.789-2.79-17.206-5.115-22.322-7.999-0.744-0.372-2.325-1.116-3.441-1.674-7.441-3.162-23.996-17.578-30.599-26.507-3.627-4.929-4.371-6.324-8.092-13.951-5.115-10.417-6.231-13.393-6.231-16.369 0-1.488-0.651-4.278-1.395-6.138-1.209-2.883-1.395-47.154-1.395-379.28 0-331.847 0.186-376.397 1.395-379.931 0.744-2.139 1.395-4.929 1.395-6.045 0-2.976 5.673-16.648 9.394-22.787 9.487-15.439 22.694-27.53 38.319-35.156 17.392-8.371 22.136-9.487 41.574-9.487 12.091 0 16.741 0.372 21.95 1.767 8.185 2.232 18.043 6.138 23.624 9.394 2.325 1.302 4.836 2.697 5.58 3.069s2.697 1.488 4.185 2.511c1.581 1.023 3.441 2.139 4.185 2.511s5.487 3.069 10.51 6.045c5.022 2.976 9.301 5.394 9.487 5.394 0.279 0 23.252 13.393 25.577 14.881 0.744 0.558 2.046 1.209 2.79 1.581 1.488 0.651 19.066 10.882 21.391 12.37 0.744 0.558 2.046 1.209 2.79 1.581s6.417 3.627 12.556 7.254c6.138 3.627 11.812 6.882 12.556 7.254s2.232 1.209 3.255 1.86c1.023 0.651 4.743 2.79 8.371 4.836 3.534 2.046 7.348 4.185 8.371 4.836s2.511 1.488 3.255 1.86c0.744 0.372 6.417 3.627 12.556 7.254s11.812 6.882 12.556 7.254c0.744 0.372 2.232 1.209 3.255 1.86s4.743 2.79 8.371 4.836c3.534 2.046 7.348 4.185 8.371 4.836s2.697 1.581 3.72 2.139c1.023 0.558 3.162 1.767 4.65 2.79 1.581 1.023 3.627 2.232 4.65 2.697 1.116 0.465 5.859 3.162 10.51 6.045 4.743 2.883 8.836 5.208 9.022 5.208 0.279 0 3.069 1.581 6.231 3.534 3.255 1.953 8.836 5.208 12.37 7.068 3.627 1.953 7.161 4.185 7.999 4.836 0.744 0.744 1.767 1.302 2.046 1.302 0.372 0 4.836 2.511 10.045 5.58 5.115 3.069 9.487 5.58 9.673 5.58 0.279 0 23.345 13.393 25.577 14.881 0.744 0.558 2.046 1.209 2.79 1.581s5.487 3.069 10.51 6.045c5.115 2.976 9.301 5.394 9.487 5.394s4.557 2.511 9.673 5.58c5.208 3.069 9.58 5.58 9.859 5.58 0.186 0 2.232 1.302 4.464 2.79 2.325 1.581 4.371 2.79 4.65 2.79 0.465 0 18.229 10.138 21.112 12.091 0.744 0.558 2.046 1.209 2.79 1.581s4.464 2.418 8.185 4.65c3.72 2.232 6.882 3.999 7.161 3.999 0.186 0 1.953 1.116 3.906 2.418s4.371 2.79 5.394 3.255c1.023 0.558 2.697 1.395 3.72 2.046s4.743 2.79 8.371 4.836c3.534 2.046 7.348 4.185 8.371 4.836s2.511 1.488 3.255 1.86c1.674 0.837 24.182 13.951 26.042 15.16 0.744 0.558 2.046 1.209 2.79 1.581s4.092 2.232 7.348 4.278c3.255 1.953 6.882 3.999 7.906 4.464 1.116 0.465 2.604 1.209 3.348 1.767 2.511 1.674 29.948 17.671 30.32 17.671 0.279 0 18.043 10.324 20.833 12.091 0.744 0.558 2.046 1.209 2.79 1.581s6.603 3.72 12.928 7.441c6.231 3.72 11.533 6.789 11.719 6.789s4.464 2.418 9.487 5.394c5.022 2.976 9.766 5.673 10.51 6.045s2.697 1.488 4.185 2.511c1.581 1.023 3.441 2.139 4.185 2.511s5.394 2.976 10.231 5.859c4.836 2.883 9.487 5.487 10.231 5.859s2.232 1.209 3.255 1.86c1.023 0.651 4.743 2.79 8.371 4.836 3.534 2.046 7.348 4.185 8.371 4.836s2.697 1.581 3.72 2.139c1.023 0.558 3.162 1.767 4.65 2.697 1.581 1.023 4.836 2.976 7.441 4.371 15.904 8.557 30.413 22.043 37.482 34.598 4.836 8.743 7.068 13.114 7.72 15.532 0.372 1.581 1.86 6.696 3.162 11.533 1.953 7.348 2.325 10.603 2.325 21.95 0 9.022-0.465 14.602-1.395 17.764-0.744 2.511-1.395 5.673-1.395 6.975s-0.651 3.162-1.395 4.185c-0.744 0.93-1.395 2.511-1.395 3.441 0 1.581-1.302 4.557-3.813 9.022-0.465 0.744-1.302 2.418-1.86 3.72s-1.953 3.627-3.255 5.301c-1.209 1.581-2.232 3.255-2.232 3.627 0 1.395-12.649 14.602-17.764 18.601-4.464 3.348-32.738 20.833-33.854 20.833-0.186 0-4.464 2.418-9.487 5.394s-9.766 5.673-10.51 6.045c-0.744 0.372-2.604 1.488-4.185 2.511-1.488 1.023-3.999 2.418-5.58 3.255-1.488 0.744-4.836 2.604-7.441 4.185-2.511 1.488-5.487 3.162-6.51 3.72s-3.069 1.767-4.65 2.79c-1.488 1.023-3.441 2.139-4.185 2.511-1.674 0.744-14.788 8.278-16.741 9.58-0.744 0.558-2.046 1.209-2.79 1.581-1.488 0.744-23.81 13.672-26.042 15.16-0.744 0.558-2.046 1.209-2.79 1.581s-5.487 3.069-10.51 6.045c-5.115 2.976-9.301 5.394-9.487 5.394-0.279 0-23.345 13.393-25.577 14.881-0.744 0.558-2.046 1.209-2.79 1.581s-6.603 3.72-12.835 7.441c-6.324 3.72-11.626 6.789-11.812 6.789s-5.487 3.069-11.719 6.789c-6.324 3.72-12.184 7.068-12.928 7.441s-2.232 1.209-3.255 1.86c-1.023 0.651-4.836 2.79-8.371 4.836-3.627 2.046-7.348 4.185-8.371 4.836s-2.511 1.488-3.255 1.86c-0.744 0.372-6.417 3.627-12.556 7.254s-11.812 6.882-12.556 7.254c-0.744 0.372-2.232 1.209-3.255 1.86s-5.859 3.441-10.696 6.231c-4.836 2.79-9.673 5.58-10.696 6.231s-2.511 1.488-3.255 1.86c-1.767 0.837-19.531 11.161-21.391 12.37-0.744 0.558-2.046 1.209-2.79 1.581s-4.092 2.232-7.348 4.278c-3.255 1.953-6.882 3.999-7.906 4.464-1.116 0.465-3.162 1.674-4.743 2.697-1.488 1.023-3.441 2.139-4.185 2.511-1.395 0.558-23.531 13.486-26.042 15.16-0.744 0.558-2.418 1.395-3.627 1.86-1.209 0.558-3.255 1.767-4.65 2.697-1.302 0.93-4.464 2.883-7.068 4.185-2.511 1.395-5.301 2.883-6.045 3.348-3.441 2.139-25.298 14.881-25.577 14.881-0.186 0-4.371 2.418-9.487 5.394-5.022 2.976-9.766 5.673-10.51 6.045s-2.604 1.488-4.185 2.511c-1.488 1.023-3.441 2.139-4.185 2.511s-4.464 2.418-8.185 4.65c-3.813 2.232-6.975 3.999-7.161 3.999s-2.232 1.302-4.464 2.79c-2.325 1.581-4.371 2.79-4.65 2.79s-4.557 2.418-9.673 5.394c-5.022 2.976-9.766 5.673-10.51 6.045s-2.604 1.488-4.185 2.511c-1.488 1.023-3.441 2.139-4.185 2.511s-5.487 3.069-10.51 6.045c-5.115 2.976-9.301 5.394-9.487 5.394s-5.58 3.162-12.091 6.975c-6.417 3.813-11.998 6.975-12.277 6.975s-2.325 1.302-4.65 2.79c-2.232 1.581-4.371 2.79-4.65 2.79-0.465 0-12.556 6.975-16.090 9.301-0.744 0.558-2.046 1.209-2.79 1.581s-6.603 3.72-12.928 7.441c-6.231 3.72-11.533 6.789-11.719 6.789s-4.464 2.418-9.487 5.394c-5.022 2.976-9.766 5.673-10.51 6.045s-2.883 1.581-4.65 2.604c-9.58 5.859-16.927 8.836-29.483 11.998-8.743 2.325-30.32 2.511-38.412 0.372z" />
<glyph unicode="&#xe902;" glyph-name="pause-lg" d="M85.333 958.293c0-1.024-1.593-1.82-4.21-2.276-22.528-3.413-46.535-18.66-61.781-39.14-7.054-9.671-15.36-26.852-17.18-35.954-2.048-9.671-2.958-853.675-0.91-863.004 4.21-19.911 12.060-35.385 25.372-49.721 14.677-15.815 32.313-25.714 55.637-30.948 7.168-1.593 32.313-1.593 39.14 0 17.18 4.21 27.762 8.988 40.505 18.432 21.276 15.929 33.223 34.816 39.595 62.805 2.389 10.24 2.389 846.507 0 856.747-4.665 20.594-12.516 36.295-25.031 50.062-13.426 14.791-36.068 27.648-53.931 30.72-2.389 0.341-4.665 1.479-5.006 2.389-0.91 2.389-32.199 2.389-32.199-0.114zM904.533 958.407c0-1.024-1.82-1.934-4.779-2.389-12.743-1.934-27.079-8.42-39.936-17.977-21.276-15.929-33.223-34.816-39.595-62.805-2.389-10.24-2.389-846.507 0-856.747 3.413-15.36 7.623-25.6 14.677-36.409 12.857-19.684 31.858-34.475 53.134-41.301 12.629-4.096 17.636-4.779 32.427-4.779 17.067 0 27.079 2.048 42.667 8.533 19.115 8.078 40.050 29.241 49.38 49.493 5.803 12.743 5.689 12.629 6.94 19.342 0.683 3.413 1.934 6.827 2.844 7.509 1.479 1.138 1.707 51.2 1.707 426.325 0 369.436-0.228 425.074-1.593 425.529-0.91 0.341-2.048 2.617-2.389 5.006-4.892 28.558-28.331 58.027-56.32 70.77-4.665 2.048-9.33 4.21-10.354 4.779-1.024 0.455-3.868 1.138-6.258 1.593-9.557 1.593-10.695 1.934-10.695 3.527 0 1.252-2.958 1.593-15.929 1.593s-15.929-0.341-15.929-1.593z" />
<glyph unicode="&#xe903;" glyph-name="pause" horiz-adv-x="837" d="M117.653 898.616c-9.673-2.511-21.019-7.161-27.902-11.44-9.58-5.952-22.415-18.508-28.646-27.809-4.185-6.417-9.022-15.904-9.022-17.857 0-0.744-0.558-2.79-1.302-4.464s-1.953-5.394-2.79-8.278c-1.395-4.743-1.488-39.621-1.488-393.417 0-343.1 0.186-388.767 1.395-392.58 0.744-2.511 2.046-6.696 2.883-9.301 7.254-22.973 24.647-42.876 46.875-53.386 16.090-7.627 20.926-8.743 40.923-8.743 13.207 0 17.485 0.372 22.787 1.86 21.112 5.766 36.738 15.904 49.572 31.994 6.138 7.72 6.51 8.278 10.696 16.834 4.185 8.65 5.673 12.649 7.72 20.926 1.674 6.789 1.767 19.159 1.767 393.417v386.441l-2.046 6.975c-5.766 19.624-11.161 29.297-23.81 42.504-13.114 13.672-26.786 21.484-46.503 26.414-9.766 2.418-31.529 2.325-41.109-0.093zM675.691 898.616c-22.043-5.766-39.621-17.020-52.084-33.482-8.929-11.719-12.37-18.508-17.485-34.877l-1.953-6.51-0.279-380.861c-0.186-241.258 0-384.116 0.558-389.697 1.302-12.835 3.255-19.345 9.022-31.157 4.185-8.557 4.65-9.115 10.51-16.555 13.021-16.369 28.646-26.507 49.851-32.273 5.208-1.488 9.673-1.86 22.415-1.86 16.183 0 21.95 0.837 33.482 5.022 5.487 1.953 17.857 8.65 22.229 11.998 8.371 6.324 18.415 17.206 23.438 25.298 3.72 5.859 9.115 18.601 10.51 24.647 0.372 1.767 1.209 4.557 1.767 6.045 0.744 2.046 0.93 107.236 0.744 392.487-0.279 410.344-0.093 391.743-3.999 401.043-0.744 1.581-1.302 3.348-1.302 3.906 0 2.046-8.278 16.834-12.37 22.136-13.765 17.857-31.157 29.111-53.944 34.784-9.859 2.418-31.529 2.325-41.109-0.093z" />
<glyph unicode="&#xe904;" glyph-name="cross" d="M72.021 957.611c-4.779-1.024-21.163-14.336-36.523-29.355-31.061-30.72-38.229-45.739-34.133-69.632 2.389-11.605 23.893-34.133 201.045-211.627l198.656-198.997-198.656-198.656c-177.152-177.835-198.656-200.363-201.045-211.968-3.755-21.845 3.755-38.571 29.013-64.853 32.085-33.792 54.272-42.667 79.872-31.744 6.485 2.731 91.819 85.675 206.507 200.021l195.584 195.925 195.243-195.925c115.029-115.029 199.68-197.291 206.165-200.021 24.917-10.581 47.445-2.048 78.507 29.696 30.037 31.061 37.547 51.541 26.965 75.776-2.731 6.485-84.992 91.136-197.973 204.117-106.155 106.155-193.195 195.243-193.195 197.632s87.040 91.477 193.195 197.632c113.664 113.323 195.243 197.632 197.973 204.117 10.581 24.917 2.048 47.445-29.696 78.507-30.72 30.037-51.2 37.205-75.776 26.965-6.485-2.731-90.453-83.968-206.165-200.021l-195.243-195.925-195.584 195.584c-114.347 114.347-200.021 197.632-206.507 200.363-10.923 4.779-22.187 5.461-38.229 2.389z" />
<glyph unicode="&#xe905;" glyph-name="refresh" d="M417.564 952.604c-13.881-3.982-23.438-11.719-29.582-24.121-3.868-7.623-3.982-7.964-3.868-21.959 0.114-12.060 0.455-15.019 2.503-19.456 4.096-8.761 8.078-13.084 57.344-63.374 13.767-13.995 24.69-26.055 24.462-26.738-0.228-0.796-2.389-1.479-4.892-1.707-7.851-0.455-38.002-5.916-49.948-8.988-13.198-3.413-29.696-8.192-33.564-9.671-1.479-0.569-5.803-2.048-9.671-3.3-3.755-1.252-8.192-3.072-9.899-3.982-1.593-0.91-3.527-1.593-4.21-1.593-2.389 0-41.643-19.115-49.721-24.121-2.503-1.593-5.234-3.186-6.144-3.641-9.216-4.437-47.673-31.744-59.164-42.098-17.067-15.474-43.804-43.122-53.476-55.296-12.174-15.36-25.031-32.54-25.031-33.451 0-0.341-2.276-3.982-5.12-8.192-2.844-4.096-5.12-7.623-5.12-7.851 0-0.341-2.276-4.437-5.12-9.102-7.396-12.629-22.756-44.26-25.6-52.907-0.569-1.593-2.048-5.689-3.413-9.102s-4.096-11.605-6.258-18.204c-2.162-6.599-4.665-14.336-5.689-17.18-0.91-2.958-1.707-6.030-1.707-7.054 0-0.91-0.683-4.21-1.593-7.168-1.479-5.12-2.389-9.216-6.485-30.606-0.683-3.755-1.707-10.923-2.276-15.929-0.455-5.006-1.479-12.971-2.048-17.636-1.479-10.923-1.479-68.38-0.114-79.644 0.683-4.665 1.479-11.378 1.82-14.791 2.617-26.738 13.653-71.452 24.348-98.987 1.365-3.413 2.844-7.623 3.413-9.216 0.455-1.593 1.365-3.868 1.934-5.12 0.683-1.138 1.934-3.982 2.844-6.144 33.564-76.345 90.226-143.474 158.492-187.733 19.115-12.402 60.53-33.906 72.249-37.66 1.593-0.455 5.689-1.934 9.102-3.3 10.24-3.868 25.941-8.875 37.319-11.833 21.504-5.575 31.061-7.509 50.859-10.24 44.487-6.258 88.633-5.12 134.258 3.413 11.833 2.276 31.516 7.168 40.96 10.126 2.503 0.796 7.851 2.503 11.947 3.868 4.096 1.252 10.24 3.413 13.653 4.665 3.413 1.365 7.623 2.844 9.216 3.413 1.593 0.455 3.868 1.365 5.12 2.048 1.138 0.683 4.437 2.162 7.282 3.413 81.237 35.499 148.935 96.256 195.812 175.559 7.396 12.516 23.78 45.511 23.78 47.9 0 0.796 0.683 2.503 1.479 3.755 0.91 1.252 1.82 3.3 2.276 4.551 0.341 1.252 1.707 5.12 3.072 8.533 9.671 24.804 17.749 55.637 22.073 83.627 0.91 6.258 2.276 15.019 2.958 19.342 2.048 11.833 2.844 76.004 1.138 89.316-0.796 5.916-1.82 14.677-2.389 19.342-3.072 28.9-12.402 66.219-23.78 95.573-1.365 3.413-2.844 7.509-3.413 9.102-3.527 11.036-19.797 43.349-30.72 61.44-13.426 22.3-19.911 29.355-32.313 35.385-7.168 3.413-8.647 3.755-18.773 3.755-10.012 0-11.492-0.341-18.318-3.755-16.27-8.078-25.714-22.187-26.965-40.505-1.138-15.815 0.569-20.252 16.839-45.966 17.294-27.307 32.768-65.991 40.164-100.807 15.132-71.111 7.623-143.929-21.732-209.92-3.755-8.306-10.809-22.3-13.881-27.307-1.252-2.162-2.731-4.779-3.186-5.689-0.341-0.91-4.779-7.851-9.785-15.246-23.666-35.84-55.296-67.698-91.022-92.16-4.324-2.844-7.964-5.234-8.192-5.234s-2.617-1.365-5.348-3.072c-7.737-5.006-8.647-5.461-24.235-13.198-16.043-7.964-33.337-14.905-47.787-19.342-14.905-4.437-30.379-8.078-46.649-10.695-10.24-1.593-19.001-2.048-47.787-1.934-31.061 0.114-36.864 0.341-48.811 2.617-7.509 1.252-15.701 2.958-18.204 3.641-2.617 0.683-7.737 1.934-11.492 2.958-54.613 14.108-105.7 43.804-148.025 86.357-17.636 17.749-29.355 32.085-42.667 52.224-13.312 20.025-18.318 29.241-28.558 51.769-1.252 2.844-2.731 6.030-3.3 7.054-1.252 2.389-3.072 7.737-8.306 23.097-23.324 69.518-22.3 143.246 2.958 215.609 3.3 9.557 3.982 11.378 8.647 21.618 10.24 22.756 15.474 32.199 29.582 53.248 19.001 28.444 45.852 56.889 72.818 77.255 12.629 9.557 27.307 19.57 30.948 21.163 0.91 0.455 3.3 1.707 5.12 2.844 10.695 6.485 33.564 17.522 43.918 21.276 19.57 6.94 36.978 11.947 51.086 14.677 5.348 1.138 12.288 2.503 15.36 3.072 8.533 1.707 24.462 2.617 24.462 1.479 0-1.024-12.402-14.108-63.147-65.877-16.27-16.612-31.289-32.882-33.223-36.181-8.533-13.653-9.33-31.061-2.389-46.080 2.958-6.258 13.426-17.749 19.684-21.39 14.564-8.533 32.313-8.306 46.308 0.569 6.144 3.868 7.623 5.348 76.117 75.207 29.81 30.379 64.512 65.65 77.141 78.507 20.821 21.163 30.834 33.337 30.834 37.888 0 0.796 0.796 3.413 1.707 5.916 3.072 8.647 1.138 23.438-4.551 34.475-1.82 3.413-11.719 14.791-23.893 27.079-34.702 35.271-142.791 145.863-146.887 150.187-3.072 3.3-10.581 8.647-15.246 10.923-9.216 4.437-20.935 5.461-30.72 2.617z" />
<glyph unicode="&#xe906;" glyph-name="tick-lg" d="M815.104 705.92c8.521 8.69 20.384 14.076 33.504 14.076s24.983-5.386 33.497-14.068l0.007-0.008c18.304-18.496 18.56-48.384 0.64-67.2l-378.432-447.36c-8.612-9.432-20.96-15.326-34.685-15.326-13.106 0-24.956 5.374-33.468 14.039l-0.007 0.007-230.272 233.344c-8.567 8.732-13.855 20.709-13.855 33.92s5.288 25.188 13.863 33.928l-0.007-0.008c8.521 8.69 20.384 14.076 33.504 14.076s24.983-5.386 33.497-14.068l0.007-0.008 195.328-197.952 345.6 411.2c0.414 0.512 0.833 0.972 1.277 1.405l0.003 0.003z" />
<glyph unicode="&#xe907;" glyph-name="chevron-down-thin" d="M105.344 662.656c5.794 5.808 13.805 9.401 22.656 9.401s16.862-3.593 22.655-9.401l361.345-361.409 361.344 361.408c5.798 5.798 13.808 9.384 22.656 9.384 17.695 0 32.040-14.345 32.040-32.040 0-8.848-3.586-16.858-9.384-22.656v0l-384-384c-5.794-5.808-13.805-9.401-22.656-9.401s-16.862 3.593-22.655 9.401l-384.001 384.001c-5.808 5.794-9.401 13.805-9.401 22.656s3.593 16.862 9.401 22.655l0.001 0.001z" />
<glyph unicode="&#xe908;" glyph-name="arrow-right" d="M64 448c0 17.673 14.327 32 32 32v0h754.752l-201.408 201.344c-5.798 5.798-9.384 13.808-9.384 22.656 0 17.695 14.345 32.040 32.040 32.040 8.848 0 16.858-3.586 22.656-9.384v0l256-256c5.808-5.794 9.401-13.805 9.401-22.656s-3.593-16.862-9.401-22.655l-256.001-256.001c-5.798-5.798-13.808-9.384-22.656-9.384-17.695 0-32.040 14.345-32.040 32.040 0 8.848 3.586 16.858 9.384 22.656v0l201.408 201.344h-754.752c-17.673 0-32 14.327-32 32v0z" />
<glyph unicode="&#xe909;" glyph-name="key" d="M221.298 697.628c-36.181-6.372-70.201-18.773-95.915-34.816-30.834-19.228-58.709-45.966-78.393-75.207-2.048-3.072-3.755-5.803-3.755-6.030s-1.138-2.048-2.503-4.096c-1.479-2.162-5.348-9.444-8.761-16.27-3.3-6.94-6.485-13.426-7.054-14.45-2.844-5.461-10.581-29.241-13.312-40.96-5.12-21.618-5.916-29.127-5.916-59.051 0-38.684 2.958-55.637 16.498-93.184 3.868-10.581 15.019-31.858 24.235-45.852 16.384-25.145 35.044-44.942 59.961-63.602 22.869-17.067 38.798-25.486 72.249-37.888 7.964-2.958 27.079-7.396 43.804-10.24 14.222-2.389 56.32-2.389 70.997 0.114 21.959 3.527 39.026 7.964 52.224 13.653 2.048 0.91 4.324 1.593 4.892 1.593 2.048 0 29.241 13.54 38.571 19.115 23.552 14.222 52.224 39.708 67.015 59.392 3.982 5.348 7.737 10.24 8.306 10.809 0.683 0.683 18.66 1.365 47.332 1.707 46.308 0.569 46.308 0.569 51.428 3.3 2.958 1.593 15.588 13.084 30.151 27.648 13.767 13.653 25.6 24.804 26.283 24.804s12.402-11.15 26.169-24.917c15.246-15.246 26.852-25.941 30.037-27.534 6.94-3.641 24.235-3.868 31.289-0.569 2.731 1.365 14.791 12.288 30.151 27.648 14.108 13.995 26.283 25.372 26.965 25.372 0.796 0 12.516-11.15 26.169-24.804 18.091-18.204 26.396-25.6 30.492-27.648l5.689-2.731h46.080c45.17 0 46.194 0 51.2 2.503 2.844 1.365 6.94 4.21 9.102 6.258 4.324 4.096 77.71 113.55 81.010 120.832 2.844 6.030 2.844 22.642 0 28.672-3.072 6.94-76.572 116.622-80.782 120.718-2.048 2.048-6.144 4.892-9.102 6.258l-5.348 2.617-226.645 0.569c-148.935 0.341-226.987 0.91-227.669 1.707-0.569 0.683-4.096 5.234-7.964 10.354-9.102 12.174-29.127 32.313-41.188 41.415-5.348 3.982-9.899 7.509-10.24 7.851-1.365 1.593-24.462 16.043-25.6 16.043-0.228 0-2.958 1.479-5.916 3.186-5.006 2.958-17.522 8.42-27.876 12.288-2.389 0.91-6.258 2.276-8.533 3.186-8.192 3.072-27.193 7.509-44.146 10.354-13.54 2.276-58.596 2.162-71.68-0.114zM278.187 626.517c3.755-0.569 9.785-1.593 13.312-2.162 3.527-0.455 8.192-1.479 10.24-2.048 2.048-0.683 6.827-2.048 10.581-3.186 38.343-11.492 72.704-37.888 97.621-75.093 10.126-15.132 14.336-19.115 23.78-22.983 4.551-1.82 19.797-1.934 229.035-2.276 123.335-0.114 225.052-0.228 226.076-0.228 1.138 0 3.868-2.844 6.372-6.485 31.516-46.763 42.325-63.488 42.325-65.422 0-1.252-1.365-4.21-3.072-6.485-1.82-2.276-3.641-5.006-4.324-6.030-1.024-1.707-9.102-13.54-24.348-35.612-3.413-5.006-8.192-12.060-10.581-15.588s-4.779-6.713-5.234-7.054c-0.569-0.341-9.671-0.683-20.252-0.796l-19.115-0.114-32.54 32.882c-36.295 36.75-38.002 38.002-51.996 38.798-15.132 0.91-16.498 0-46.535-29.582-14.336-14.336-26.965-25.941-27.876-25.941s-11.605 10.126-23.78 22.528c-12.288 12.288-24.348 24.007-26.738 25.941-6.485 5.006-13.198 7.282-21.39 7.282-14.336 0-14.791-0.341-52.565-37.774l-34.247-33.906-47.104-0.341c-41.301-0.228-47.787-0.569-52.11-2.162-8.306-3.3-14.45-8.647-19.684-16.953-27.762-44.146-67.812-73.842-113.664-84.423-16.156-3.755-21.732-4.437-38.116-5.006-13.995-0.455-19.684-0.114-31.744 1.934-8.192 1.365-15.132 2.617-15.588 2.958-0.455 0.228-3.072 0.91-5.803 1.479-4.665 1.024-21.163 6.713-25.486 8.988-1.252 0.569-3.641 1.82-5.575 2.731-35.612 17.977-62.578 44.26-80.668 78.734-5.916 11.264-7.054 14.108-12.516 31.403-6.144 19.456-7.509 29.127-7.509 52.452s2.731 41.415 8.533 56.775c7.851 20.594 8.761 22.528 17.408 37.547 8.192 14.222 24.462 32.996 38.343 44.26 14.677 11.947 22.756 17.067 41.756 26.396 4.437 2.276 21.959 8.078 31.061 10.468 18.773 4.892 48.242 6.827 63.716 4.096zM240.64 517.518c-1.252-0.569-5.348-2.162-9.102-3.527-19.456-7.396-34.361-22.983-42.325-43.918-2.617-6.94-2.844-9.557-2.844-22.642 0-11.833 0.455-16.156 2.276-21.618 8.306-24.576 23.893-40.164 48.583-48.356 10.354-3.413 31.289-3.186 42.439 0.455 30.037 9.785 50.29 37.547 50.29 68.949 0 28.331-13.995 50.404-41.87 65.764-7.509 4.096-16.725 5.916-30.948 5.803-7.851 0-15.246-0.455-16.498-0.91z" />
<glyph unicode="&#xe90a;" glyph-name="lock" d="M495.502 948.622c-4.665-2.276-8.647-5.461-12.402-9.899-16.953-19.911-41.188-39.367-69.518-55.979-5.575-3.3-11.036-6.372-11.947-6.94-8.078-5.006-38.571-18.887-54.044-24.69-2.503-0.91-6.030-2.389-7.964-3.072-4.551-1.934-34.475-11.264-43.804-13.767-4.096-1.138-9.671-2.617-12.516-3.413s-9.216-2.276-14.222-3.413c-5.006-1.024-12.174-2.617-15.929-3.413-37.66-8.42-90.908-14.108-143.929-15.36-29.468-0.683-35.499-1.138-40.391-2.844-6.599-2.503-16.043-11.264-20.025-18.887l-2.731-5.006v-187.733c0.114-172.373 0.228-188.644 2.048-198.315 1.024-5.689 1.934-12.857 1.934-15.701s0.683-8.306 1.593-12.174c0.91-3.868 2.276-10.581 2.958-15.019 2.617-16.156 3.072-18.318 4.437-23.324 0.796-2.844 2.162-7.623 2.958-10.809 4.892-19.001 7.623-27.762 11.947-39.253 4.892-12.857 5.803-15.474 6.713-18.318 0.569-1.593 1.479-3.868 2.048-5.12 0.683-1.138 5.348-10.581 10.468-20.935 9.899-20.025 13.312-26.055 18.432-33.906 1.82-2.731 3.3-5.12 3.3-5.348 0-1.934 24.576-35.044 34.588-46.649 15.36-17.749 37.774-40.050 50.745-50.404 2.844-2.276 5.689-4.665 6.258-5.348 1.593-1.593 20.252-16.156 27.876-21.618 8.647-6.258 30.72-21.049 31.289-21.049 0.228 0 3.413-1.934 7.054-4.437 3.641-2.389 9.216-5.689 12.288-7.396 3.186-1.707 7.282-3.982 9.102-5.12 11.378-6.599 40.505-21.618 56.32-28.9 3.413-1.593 10.809-5.006 16.27-7.509 5.575-2.617 10.695-4.665 11.492-4.665 0.683 0 1.82-0.455 2.389-1.024 1.138-0.91 4.437-2.389 34.133-14.564 6.94-2.844 14.108-5.916 16.156-6.713 1.934-0.91 4.096-1.593 4.892-1.593s2.731-0.683 4.324-1.593c2.958-1.479 16.953-7.282 25.259-10.354 2.162-0.796 7.851-3.072 12.516-4.892 4.665-1.934 12.516-5.006 17.294-6.94 11.833-4.779 19.57-4.779 31.403 0 4.779 1.934 12.629 5.006 17.294 6.94 4.665 1.82 10.354 4.096 12.516 4.892 4.665 1.707 20.708 8.192 25.6 10.24 1.934 0.796 5.461 2.276 7.964 3.186 6.144 2.276 21.959 8.647 26.169 10.468 1.934 0.796 9.785 4.096 17.636 7.396s18.432 7.964 23.666 10.354c5.234 2.503 9.785 4.437 10.126 4.437 0.796 0 39.253 19.228 47.559 23.893 3.755 2.048 9.102 5.006 11.947 6.485 2.844 1.593 9.899 5.689 15.701 9.216 5.803 3.641 11.492 7.054 12.516 7.623 12.288 7.282 54.727 37.774 59.392 42.667 0.341 0.341 3.868 3.413 7.964 6.827 14.677 12.288 34.816 32.313 49.607 49.493 9.671 11.15 34.588 44.715 34.588 46.535 0 0.341 1.479 2.731 3.3 5.461 5.461 8.192 8.761 14.336 18.204 33.337 10.468 21.276 12.743 26.283 16.043 35.84 0.569 1.593 2.048 5.689 3.413 9.102 3.3 8.647 6.144 17.408 8.42 26.169 2.389 8.988 4.551 17.18 6.372 23.324 1.252 4.551 2.048 8.647 4.551 23.893 0.796 4.437 2.048 11.15 2.958 15.019s1.593 9.444 1.593 12.288c0 2.844 0.91 9.899 1.934 15.588 1.82 9.671 1.934 26.169 2.048 198.315v187.733l-3.413 6.030c-1.82 3.413-5.803 8.306-8.761 11.036-9.33 8.306-11.605 8.761-50.972 9.671-75.662 1.82-135.964 10.468-196.267 28.444-8.761 2.617-17.408 5.12-19.342 5.689-7.054 1.934-29.355 10.354-42.098 15.929-4.096 1.707-39.708 19.342-42.098 20.821-1.252 0.796-4.324 2.617-6.827 4.21s-5.348 3.3-6.258 3.755c-15.019 7.509-45.397 32.996-60.985 51.2-7.851 9.216-16.384 13.312-27.876 13.312-7.054 0-9.557-0.569-15.246-3.413zM519.054 856.235c11.378-9.557 37.547-28.331 43.008-30.834 0.91-0.455 3.3-1.82 5.12-3.072 1.934-1.252 4.21-2.617 5.12-3.072s5.348-2.844 9.671-5.348c13.995-8.192 50.972-25.486 62.009-29.127 1.593-0.569 5.689-2.048 9.102-3.413 6.827-2.617 26.396-9.102 36.409-12.174 3.413-1.024 8.306-2.503 10.809-3.3 6.144-1.82 26.51-7.054 39.253-9.899 42.553-9.671 104.903-17.977 147.684-19.456 8.306-0.341 15.588-0.91 16.156-1.252 1.479-0.91 1.479-288.54 0-314.027-1.707-32.654-7.623-68.494-15.36-93.298-0.796-2.503-2.276-7.623-3.413-11.378-2.503-8.875-7.737-22.642-13.653-36.409-2.958-6.599-13.084-26.852-15.701-31.061-1.479-2.276-3.072-5.006-3.527-5.916-2.731-5.803-15.929-25.145-24.348-35.84-17.522-21.959-29.241-34.020-57.116-58.596-6.485-5.803-29.924-22.869-42.098-30.948-16.27-10.581-22.414-14.222-42.667-25.486-14.222-7.964-46.308-23.324-64.853-31.175-6.258-2.617-13.995-6.030-17.294-7.509-3.186-1.479-6.599-2.731-7.396-2.731-0.91 0-2.048-0.455-2.617-1.024-0.683-0.569-3.982-2.162-7.396-3.527-18.091-7.282-23.666-9.444-27.307-10.809-2.162-0.796-8.078-3.072-13.084-5.12s-11.15-4.437-13.653-5.348c-2.503-1.024-5.575-2.162-6.827-2.731-1.252-0.455-5.006-2.048-8.306-3.413-5.575-2.276-6.258-2.389-10.24-0.683-10.126 4.096-22.187 8.988-34.93 13.881-48.356 18.773-83.172 33.906-117.191 50.859-10.012 5.006-18.66 9.444-19.342 9.899-0.569 0.569-4.665 2.844-9.102 5.234-4.324 2.389-10.126 5.689-12.857 7.509s-5.12 3.3-5.461 3.3c-0.341 0-6.599 3.982-13.881 8.761-40.277 26.396-71.908 55.068-99.442 89.657-8.533 10.809-20.935 29.127-24.69 36.409-0.683 1.252-2.958 5.348-5.12 9.102-9.444 16.384-22.187 45.966-27.42 63.716-1.138 3.755-2.617 8.875-3.413 11.378-3.413 10.695-7.396 28.9-10.24 46.080-5.803 36.295-5.575 26.965-6.030 198.997-0.228 88.519 0.114 161.337 0.569 161.792 0.569 0.569 8.647 1.252 17.977 1.593 25.6 0.91 63.829 4.779 92.729 9.216 25.259 3.868 57.003 10.126 66.674 13.084 1.82 0.569 5.689 1.479 8.533 2.048 4.779 0.91 12.743 3.072 23.78 6.485 2.844 0.796 7.737 2.276 10.809 3.186 15.474 4.551 46.421 16.27 66.56 25.372 7.851 3.527 26.396 12.857 32.427 16.27 2.503 1.479 6.599 3.755 9.102 5.12 4.779 2.503 10.012 5.803 22.187 13.767 8.306 5.348 30.948 21.959 31.858 23.324 1.024 1.479 9.33 7.851 10.354 7.851 0.569 0 4.21-2.731 8.078-5.916zM490.951 625.948c-17.522-4.21-27.762-8.42-39.708-16.612-21.959-14.791-36.75-35.954-44.601-63.488-3.3-11.492-2.958-44.146 0.455-55.182 5.803-18.318 14.905-34.361 26.283-46.535 6.713-7.054 20.48-17.067 30.265-21.845 5.006-2.389 9.444-4.892 9.899-5.575 0.455-0.569 0.91-25.6 0.91-55.41 0-33.451 0.455-57.685 1.252-63.147 1.252-8.761 3.868-14.45 9.444-20.708 5.348-5.916 17.749-11.492 25.714-11.492 5.006 0 13.995 2.958 19.342 6.258 8.192 5.234 13.767 13.995 15.701 24.576 0.91 5.12 1.365 25.259 1.365 63.147 0 30.606 0.455 56.206 0.91 56.775 0.455 0.683 4.892 3.186 9.899 5.689 20.935 10.126 37.319 26.396 47.787 47.218 10.126 20.366 11.264 25.031 11.264 48.924 0.114 21.732-0.683 26.396-7.623 43.236-16.27 39.822-55.979 66.219-98.987 65.877-7.054 0-15.815-0.796-19.57-1.707zM521.785 553.131c7.168-2.048 17.408-10.695 21.276-17.977 2.048-3.868 2.503-6.599 2.503-16.043-0.114-12.857-1.479-16.498-9.671-25.145-7.054-7.396-13.54-10.012-24.462-10.126-11.264 0-17.067 2.276-24.804 9.557-8.761 8.42-10.354 12.402-10.354 25.714 0 13.653 1.82 17.977 11.378 26.624 9.444 8.647 21.163 11.264 34.133 7.396z" />
<glyph unicode="&#xe90b;" glyph-name="form" d="M438.613 944.526c-1.252-0.341-4.551-1.024-7.396-1.707-25.828-6.258-47.218-23.438-58.709-47.332-8.078-16.725-7.851-14.108-7.851-87.95v-66.56h56.889l1.138 124.018 2.731 5.461c3.3 6.713 9.557 12.174 16.839 14.791 4.892 1.707 11.492 1.934 68.267 1.934 60.302 0 63.033-0.114 68.836-2.276 5.689-2.162 13.426-7.964 13.426-10.012 0-0.455 0.569-1.479 1.365-2.276 3.982-3.982 4.324-8.875 4.324-69.632 0-32.882 0.455-60.416 0.91-61.212 0.796-1.024 7.396-1.365 29.355-1.138l28.331 0.341 0.341 62.578c0.228 59.847 0.114 63.033-2.048 72.59-4.21 17.636-10.581 29.582-22.642 42.098-9.557 9.899-20.252 17.18-31.403 21.39-13.198 4.892-11.492 4.779-87.609 5.12-40.050 0.114-73.842 0-75.093-0.228zM213.902 828.587c-0.91-0.228-5.803-1.024-10.809-1.82-17.294-2.731-34.93-11.492-47.104-23.552-7.623-7.623-17.18-19.911-17.18-22.073 0-0.91-0.569-2.162-1.365-2.958-1.707-1.707-3.982-7.964-6.713-18.66-2.162-8.533-2.162-15.132-1.82-374.329 0.341-332.117 0.455-366.137 2.162-371.257 9.102-28.331 28.444-49.493 54.386-59.506 12.971-5.006 1.479-4.779 323.925-4.779 265.216 0 306.176 0.228 312.889 1.707 11.492 2.503 20.594 6.258 30.379 12.402 6.485 4.21 23.438 20.366 23.438 22.414 0 0.683 1.479 3.186 3.413 5.575 1.82 2.389 3.413 4.779 3.413 5.461s0.683 2.617 1.593 4.437c0.796 1.707 2.276 5.006 3.3 7.168 4.892 11.378 4.779-0.341 4.779 379.449 0 380.473 0.114 371.143-4.779 380.587-0.796 1.593-1.479 3.413-1.479 3.982 0 1.707-3.3 7.964-8.42 15.815-8.988 13.881-24.804 26.965-39.595 32.882-16.612 6.713-17.863 6.827-84.423 7.282-33.792 0.228-62.578 0.228-64.057-0.228l-2.617-0.569 0.228-28.786 0.341-28.672 61.44-0.569c33.792-0.341 62.692-1.138 64.284-1.707 5.006-1.707 11.15-6.030 14.108-10.012 6.827-8.988 6.372 19.57 6.372-369.436 0-249.515-0.341-356.921-1.252-359.652-1.934-6.258-4.551-10.468-8.761-14.336-8.42-7.737 17.18-7.168-313.913-7.168h-299.691l-5.916 2.844c-7.623 3.527-12.516 8.761-15.474 16.27l-2.389 6.030v355.328c0 329.5 0.114 355.783 1.934 361.358 2.276 7.168 10.695 16.27 17.067 18.432 3.186 1.024 20.025 1.593 65.764 2.048l61.44 0.569v58.027l-58.596 0.114c-32.199 0.114-59.392 0-60.302-0.114zM505.742 828.018c-15.246-3.755-24.462-14.791-24.462-29.013 0-10.695 6.258-21.163 15.36-25.941 6.485-3.413 20.821-3.413 27.307 0 11.492 6.144 17.749 19.228 15.132 31.63-2.389 11.264-10.581 19.797-22.073 22.756-3.641 0.91-6.94 1.707-7.282 1.593s-2.048-0.455-3.982-1.024zM305.721 710.030c-1.479-1.365-0.91-55.524 0.569-57.003 1.024-1.024 47.9-1.365 204.004-1.365 111.388 0 203.207 0.455 204.004 0.91 1.024 0.796 1.365 7.396 1.138 29.355l-0.341 28.331-204.345 0.341c-112.299 0.114-204.686-0.114-205.028-0.569zM600.747 567.239c-3.868-1.82-31.858-28.9-116.053-112.299-142.336-140.971-144.839-143.588-146.318-146.887-0.683-1.593-2.162-5.689-3.186-9.102-1.138-3.413-2.617-8.078-3.527-10.24-0.796-2.162-5.348-16.27-10.24-31.289-4.779-15.019-9.444-29.127-10.24-31.289s-4.892-14.564-9.102-27.648c-7.396-22.642-7.623-24.007-7.168-32.54 0.683-11.036 4.21-17.067 13.426-22.528 5.575-3.413 6.94-3.755 15.588-3.755 5.348 0 10.923 0.683 13.084 1.593 4.665 1.934 10.581 3.982 15.132 5.234 1.934 0.569 15.474 5.12 30.151 10.24s28.331 9.671 30.151 10.24c3.527 1.024 9.33 2.958 14.222 4.779 1.593 0.569 9.557 3.3 17.863 6.144 8.306 2.731 16.612 5.689 18.432 6.599 5.12 2.731 256.91 255.317 260.096 261.12 3.982 6.827 3.982 17.408 0.114 24.917-3.982 7.737-88.292 91.705-96.37 96.142-7.396 3.868-18.091 4.21-26.055 0.569zM635.449 479.858l20.366-20.48-2.844-2.958c-6.599-7.168-219.819-219.591-220.956-220.16-0.796-0.455-6.485-2.389-12.743-4.437s-13.198-4.324-15.36-5.12c-6.827-2.389-11.719-3.982-19.342-6.372-4.096-1.365-8.306-2.844-9.33-3.413-5.689-2.958-5.575 0.683 0.796 17.749 2.276 6.258 4.551 12.971 5.12 14.791 1.707 6.258 6.372 18.887 8.875 24.69 1.252 2.731 40.505 42.78 112.526 115.143 60.757 61.099 111.047 111.047 111.502 111.047 0.569 0 10.126-9.216 21.39-20.48z" />
<glyph unicode="&#xe90c;" glyph-name="hide" horiz-adv-x="1409" d="M1146.755 958.591c1.253-2.035-2.035-4.071-10.021-6.263-6.263-1.722-13.152-8.142-59.498-54.331-49.634-49.321-56.21-55.114-59.968-51.357-1.096 1.096-24.426 9.551-32.411 11.743-2.975 0.939-6.889 2.192-8.612 2.975-4.854 2.192-32.254 10.491-38.361 11.587-2.975 0.626-6.889 1.722-8.612 2.505-6.42 2.662-53.235 12.839-77.505 16.597-27.87 4.541-32.098 5.010-56.367 7.516-13.309 1.409-29.906 3.131-36.952 4.071-15.971 2.035-98.486 2.035-113.673 0.157-6.263-0.939-20.511-2.349-31.785-3.288-11.117-0.939-27.087-2.818-35.229-4.071-8.142-1.409-21.138-3.445-28.966-4.541-21.451-3.445-35.699-6.263-57.15-11.743-10.804-2.818-23.017-5.95-27.401-6.889-9.551-2.349-34.76-10.021-39.144-11.9-1.722-0.783-4.854-1.879-7.046-2.349-4.071-1.096-40.553-14.092-46.19-16.44-1.722-0.783-10.177-4.384-18.789-7.985-90.5-37.735-171.606-96.607-238.933-173.642-10.177-11.587-44.154-56.21-49.478-64.979-32.411-53.235-49.165-85.49-59.185-114.3-1.409-4.228-3.288-9.081-4.071-10.491-1.879-3.601-1.879-28.966 0-30.062 0.783-0.47 1.879-3.445 2.349-6.42 0.626-3.131 3.131-10.177 5.793-15.657 2.505-5.48 4.541-10.491 4.541-10.96 0-2.662 27.557-55.897 37.108-71.868 42.745-71.242 104.435-137.473 171.45-184.602 21.138-14.875 53.549-35.229 59.655-37.578 1.409-0.47 2.662-2.349 2.662-3.914 0-1.722-14.875-17.536-36.482-38.831-20.511-20.042-38.361-38.987-40.553-42.902-12.996-22.547-5.793-51.357 15.971-64.822 7.046-4.541 20.198-8.768 26.931-8.768 6.263 0 19.885 5.010 27.087 9.864 2.818 2.035 211.22 209.341 462.992 460.643 450.466 449.996 457.825 457.355 460.487 465.967 3.445 11.117 3.445 22.234 0 32.881-3.601 11.587-18.319 26.461-29.123 29.123-4.697 1.253-7.359 2.818-7.359 4.384 0 1.879-2.035 2.349-9.551 2.349-5.167 0-9.081-0.626-8.612-1.409zM781.309 805.304c11.587-0.939 24.739-2.505 28.966-3.288 4.384-0.939 15.188-2.662 24.269-4.071s20.668-3.445 25.835-4.697c5.167-1.253 12.526-2.662 16.44-3.288 3.914-0.47 7.829-1.566 8.612-2.192 0.939-0.626 4.697-1.566 8.612-2.192 7.046-1.096 39.3-10.021 47.442-13.309 2.349-0.939 4.228-2.505 4.228-3.758 0-3.288-65.135-66.857-68.58-66.857-1.722 0-6.889 2.505-11.43 5.637-8.142 5.637-43.528 24.113-45.876 24.113-0.783 0-3.445 0.939-6.106 2.192-13.935 5.95-30.219 11.117-43.371 13.622-26.148 5.010-33.977 6.106-54.018 7.046-50.104 2.192-100.051-8.298-145.615-30.689-30.689-15.188-56.993-33.977-80.636-57.933-41.336-41.492-70.302-96.45-80.636-152.817-1.409-7.672-3.288-17.38-4.071-21.764-2.818-13.465-0.939-69.206 2.975-88.465 3.288-16.127 4.071-19.259 8.612-35.229 6.263-21.92 26.774-65.292 37.265-78.914 1.722-2.035 2.975-4.854 2.975-6.263 0-2.818-95.354-98.799-98.172-98.799-0.939 0-7.985 3.288-15.657 7.202-7.516 4.071-15.814 8.455-18.476 9.708-2.505 1.409-6.889 4.071-9.551 6.106s-5.48 3.601-6.106 3.601c-3.445 0-53.549 36.325-68.893 50.104-19.259 17.067-41.023 38.831-54.958 54.801-3.288 3.914-7.046 7.985-8.142 9.081-1.096 1.253-8.925 11.43-17.38 22.703-19.259 25.835-36.325 54.331-51.513 85.49l-11.743 24.269 4.071 7.829c2.192 4.384 5.95 12.213 8.455 17.38 8.142 17.067 24.269 45.25 35.386 61.847 5.637 8.298 30.062 41.179 32.881 44.154 0.939 1.096 6.889 7.672 12.839 14.561 36.169 41.179 82.828 79.853 129.174 106.941 10.804 6.42 20.668 12.213 21.92 12.996 5.637 3.445 50.73 24.895 52.453 24.895 0.313 0 2.505 0.783 5.010 1.879 7.516 2.975 17.85 6.889 35.856 13.309 9.394 3.445 17.85 6.576 18.789 7.046 0.783 0.47 3.914 1.409 6.889 1.879 2.975 0.626 6.889 1.722 8.612 2.505 4.541 2.035 31.158 9.394 42.432 11.743 5.324 0.939 10.334 2.349 11.117 2.818s5.324 1.566 10.021 2.505c4.697 0.783 14.092 2.662 20.981 4.071 16.754 3.601 39.927 6.889 61.847 8.768 9.864 0.783 21.92 2.192 26.618 2.818 11.743 1.879 113.36 0.939 139.352-1.096zM726.351 656.088c28.027-4.384 48.382-10.334 65.918-19.102 7.202-3.601 10.177-5.95 10.334-8.142s-41.179-44.311-135.437-138.256c-106.628-106.158-136.377-134.811-138.569-134.028-3.288 1.253-12.056 19.415-16.597 34.446-1.879 5.95-4.071 12.996-4.854 15.814-2.662 8.612-5.324 32.098-5.324 47.442s2.818 41.023 5.48 49.321c10.021 31.941 16.754 46.033 33.194 70.146 12.213 17.693 33.507 37.578 55.897 51.826 13.935 8.925 36.482 19.728 41.179 19.728 1.253 0 2.818 0.626 3.601 1.409 1.722 1.566 25.365 7.202 39.144 9.238 13.465 2.035 33.977 2.192 46.033 0.157zM1155.053 761.776c-23.486-5.793-37.578-23.486-37.578-47.599 0-7.829 0.939-13.309 2.662-16.44 1.409-2.505 2.505-5.324 2.505-6.263 0.157-2.662 9.708-12.369 21.138-21.294 57.933-44.937 105.062-99.425 138.569-159.706 9.394-16.91 23.486-46.972 24.582-51.983 0.939-4.384-6.733-23.643-17.067-42.902-10.491-19.728-14.405-26.618-18.476-32.568-2.349-3.445-7.672-11.587-11.9-18.006s-8.142-12.369-8.768-13.309c-33.82-44.624-62.787-74.686-103.809-107.567-10.804-8.612-45.72-32.724-54.801-37.891-2.505-1.409-8.142-4.697-12.526-7.202-18.163-10.804-40.553-22.234-61.064-31.315-12.056-5.324-23.33-10.334-25.052-11.117s-5.167-2.035-7.829-2.818c-2.505-0.939-10.647-3.758-18.006-6.42-7.359-2.818-16.44-5.95-20.355-7.046-22.39-6.576-41.023-11.587-48.538-13.309-4.697-1.096-10.334-2.505-12.526-3.288s-8.142-2.035-13.309-2.975c-5.167-0.783-18.946-3.131-30.532-5.167-33.977-6.106-43.058-7.202-73.59-9.238-36.795-2.505-85.020-2.505-122.128 0-29.749 1.879-31.941 2.192-70.459 8.925-56.524 9.864-59.655 10.021-74.373 3.131-15.971-7.359-25.522-21.451-27.087-39.457-1.096-14.092 2.818-26.148 11.743-36.325 10.804-12.369 23.643-17.223 60.751-23.017 30.219-4.854 34.603-5.48 40.709-6.106 3.445-0.47 16.44-1.879 28.966-3.445 26.931-3.131 135.75-4.541 151.095-2.035 5.167 0.783 20.668 2.662 34.446 4.071 13.779 1.253 28.966 2.975 33.664 3.758 45.72 7.046 85.177 15.814 123.694 27.714 28.653 8.768 52.609 16.91 63.726 21.764 2.662 1.253 5.167 2.192 5.637 2.192s5.637 2.192 11.587 4.854c5.793 2.505 12.056 5.324 13.779 6.106 9.708 4.228 28.966 13.152 33.664 15.344 14.248 7.046 64.352 36.325 75.313 43.998 3.131 2.349 7.359 5.167 9.238 6.42 18.006 11.9 56.524 42.745 74.217 59.498 29.123 27.401 61.377 63.726 78.601 88.465 2.975 4.384 9.551 13.779 14.561 21.138s13.309 20.355 18.163 28.966c9.238 15.971 30.532 57.463 30.532 59.342 0 0.626 1.879 5.167 4.071 10.021 7.202 15.971 7.985 18.319 9.238 23.799 1.253 6.263 3.601 9.708 5.637 8.455 0.783-0.47 1.409 6.106 1.409 14.718 0 13.935-0.313 15.657-2.975 16.44-1.879 0.47-3.288 2.662-3.914 6.263-0.626 3.131-2.818 9.708-5.010 14.718s-5.48 12.213-7.202 16.127c-7.985 18.319-22.86 46.659-31.002 59.498-0.783 1.253-2.662 4.541-4.071 7.046-9.394 16.754-35.386 53.079-55.271 76.722-17.693 20.981-54.645 57.463-76.878 75.626-21.92 18.006-20.355 16.754-29.28 22.86-5.324 3.601-25.365 10.647-28.653 10.177-0.47-0.157-4.854-1.253-9.864-2.349zM936.944 547.582c-14.092-3.445-23.799-10.96-31.785-24.426-3.758-6.576-4.071-8.298-3.914-25.835 0-12.996 0.626-20.042 2.192-22.703 2.662-4.697 2.818-36.639 0.157-48.225-0.939-4.071-2.349-10.804-3.131-15.188-4.228-22.234-17.067-50.574-33.194-73.277-11.587-16.284-33.664-37.891-49.947-49.008-12.839-8.612-40.083-22.547-44.154-22.547-1.409 0-2.975-0.626-3.445-1.409s-7.829-2.975-16.127-4.854c-8.455-1.879-17.536-3.914-20.198-4.697-7.829-1.879-54.175-1.879-59.342 0-7.516 2.975-25.835 2.505-34.916-0.783-8.925-3.288-21.294-14.248-25.835-22.86-6.576-12.839-6.106-36.795 1.253-48.225 12.369-19.728 28.81-25.835 75.782-27.714 38.831-1.722 77.191 4.228 116.022 17.536 11.117 3.914 45.094 20.824 57.15 28.497 40.083 25.678 78.757 65.918 99.112 103.496 20.355 37.265 29.123 62.16 36.325 102.87 2.818 16.284 3.288 23.33 2.662 50.887-0.939 45.25-4.384 60.594-16.754 74.060-11.9 12.996-31.002 18.632-47.912 14.405z" />
<glyph unicode="&#xe90d;" glyph-name="show" horiz-adv-x="1608" d="M756.831 957.141c-1.43-2.145-9.114-3.217-38.422-5.361-69.696-4.825-134.925-16.441-201.047-35.742-20.909-6.076-45.035-13.761-50.396-16.084-3.038-1.43-6.255-2.502-7.327-2.502-0.894 0-4.11-1.251-6.791-2.681-2.859-1.43-6.434-2.681-8.042-2.681-1.43 0-3.395-0.715-4.468-1.43-0.894-0.894-5.54-3.038-10.544-4.825-4.825-1.787-13.403-5.183-18.764-7.506-5.361-2.502-14.297-6.434-19.658-8.935-10.544-4.646-32.168-15.548-48.251-24.304-5.361-2.859-15.012-8.042-21.445-11.616-6.434-3.395-12.867-7.327-14.475-8.578-1.43-1.43-3.217-2.502-3.932-2.502-1.251 0-16.262-9.829-42.354-27.521-31.989-21.981-65.229-50.038-99.183-84.172-18.764-18.586-36.993-37.529-40.388-41.997-3.574-4.468-10.544-12.867-15.369-18.764-13.939-16.799-35.92-48.966-51.468-75.058-13.403-22.339-43.784-83.278-43.784-87.925 0-0.715-1.251-3.753-2.681-6.434s-3.038-7.684-3.753-11.259c-0.536-3.395-1.787-6.612-2.681-7.148-2.145-1.251-2.145-26.985 0-28.236 0.894-0.536 2.145-3.932 2.859-7.506 0.536-3.574 1.787-7.863 2.681-9.472s2.859-5.719 4.289-9.114c7.327-17.335 11.259-25.913 20.551-44.677 5.719-11.259 12.51-23.947 15.19-28.236s5.54-9.472 6.434-11.616c4.11-9.114 34.669-53.613 52.004-75.415 26.27-33.061 65.586-74.879 88.282-93.822 2.859-2.502 11.259-9.472 18.407-15.726 12.152-10.186 62.905-48.609 70.947-53.434 1.966-1.072 13.939-8.399 26.628-16.084 29.487-17.692 25.734-15.726 59.153-32.346 26.091-13.046 33.776-16.62 52.719-24.662 3.395-1.608 7.863-3.574 9.829-4.468 3.753-1.608 24.483-9.472 33.955-12.688 3.038-0.894 6.97-2.323 8.935-3.217 3.038-1.251 18.407-6.076 53.613-16.977 3.932-1.072 18.407-4.825 32.168-8.042s26.27-6.255 27.7-6.791c1.43-0.536 8.399-1.966 15.19-3.217 6.97-1.072 17.692-3.038 24.126-4.11 32.168-5.897 62.905-9.472 91.141-11.080 17.156-0.894 38.958-2.502 48.251-3.395 21.802-2.323 58.795-2.323 80.419 0 9.293 1.072 31.095 2.502 48.251 3.395 30.559 1.787 55.4 4.646 85.78 10.365 8.399 1.43 21.266 3.753 28.593 5.004 34.312 6.076 113.123 27.521 131.708 35.92 3.038 1.43 7.148 2.502 8.935 2.502s4.11 0.715 5.183 1.608c0.894 0.894 9.293 4.646 18.586 8.221 18.050 6.97 20.73 8.042 40.209 16.977 18.407 8.221 34.848 16.441 41.997 20.73 3.395 2.145 8.221 4.468 10.544 5.183 2.502 0.715 7.506 3.574 11.437 6.434s7.863 5.183 8.757 5.183c0.715 0 4.825 2.145 9.114 4.825 4.11 2.681 8.757 5.719 10.544 6.791 23.59 14.475 41.282 26.628 66.658 45.928 40.031 30.559 86.138 75.058 119.735 115.982 16.441 19.837 54.327 74.343 58.259 83.993 0.715 1.43 4.289 7.863 8.221 14.297 14.297 23.947 38.244 76.845 40.924 90.784 0.715 3.753 2.502 6.434 4.646 6.791 2.859 0.894 3.217 2.859 3.217 16.62 0 13.046-0.536 15.905-2.859 16.441-1.608 0.357-4.289 5.004-6.434 11.259-1.966 5.897-5.183 14.297-6.97 18.764-1.966 4.468-4.289 9.65-5.183 11.616-9.293 22.339-41.818 83.099-48.609 90.963-0.894 1.072-4.289 6.255-7.684 11.437-11.973 18.586-25.019 35.92-47 62.905-9.114 11.080-65.050 67.194-78.096 78.274-20.015 16.977-44.677 36.278-59.51 46.464-20.73 14.297-40.031 26.985-43.247 28.415-1.43 0.536-3.932 2.145-5.361 3.217-1.43 1.251-7.863 5.004-14.297 8.399-6.434 3.574-14.475 8.042-17.871 10.008-7.863 4.646-38.065 19.479-54.506 26.985-6.791 3.217-14.833 6.791-17.871 8.221-7.506 3.574-46.822 18.764-48.251 18.764-0.715 0-3.753 1.072-6.791 2.502-11.080 4.825-54.864 18.050-84.35 25.377-26.985 6.612-32.882 8.042-43.784 9.65-6.434 1.072-13.939 2.681-16.977 3.574-2.859 0.894-11.795 2.502-19.658 3.574-7.863 1.251-22.339 3.217-32.168 4.646s-33.597 3.753-52.719 5.004c-34.848 2.502-41.997 3.574-40.031 6.612 0.536 0.894-18.050 1.608-44.32 1.608-39.137 0-45.392-0.357-47-2.859zM847.079 844.733c17.156-0.536 41.282-2.323 53.613-3.753s29.129-3.395 37.529-4.289c8.399-0.894 18.050-2.502 21.445-3.395 3.395-1.072 10.365-2.323 15.19-2.859 5.004-0.715 11.795-1.787 15.19-2.681s13.939-3.395 23.232-5.54c9.293-1.966 18.586-4.468 20.551-5.183 1.966-0.894 7.148-2.323 11.616-3.217 9.472-2.145 36.814-10.365 41.997-12.688 1.966-0.894 10.008-3.932 17.871-6.434 26.806-9.114 48.966-18.764 91.141-39.673 32.168-16.084 70.769-40.031 101.864-63.62 64.871-48.966 121.701-111.514 158.872-174.598 15.012-25.555 14.654-25.019 21.981-40.209 3.395-6.791 8.042-16.441 10.544-21.266 2.681-5.54 3.932-10.186 3.217-12.51-1.072-3.395-9.829-22.875-18.407-40.388-4.825-10.186-23.411-41.103-33.24-55.4-14.297-20.909-22.875-33.061-23.947-33.955-0.536-0.536-5.897-6.97-11.795-14.297-26.628-33.24-78.096-81.491-116.875-109.191-11.973-8.578-30.559-21.266-31.274-21.266-0.179 0-6.076-3.574-12.867-8.042-6.612-4.468-12.867-8.042-13.939-8.042-0.894 0-3.038-1.251-4.646-2.681-3.395-3.038-59.689-31.989-66.301-33.955-4.646-1.608-25.734-10.723-30.559-13.403-1.787-1.072-4.11-1.787-5.361-1.787s-4.289-1.072-6.791-2.323c-4.825-2.502-54.685-18.764-72.020-23.411-5.54-1.608-14.475-3.932-19.658-5.361-5.004-1.43-15.726-3.753-23.59-5.361s-18.228-3.932-23.232-5.004c-4.825-1.072-13.761-2.681-19.658-3.395s-20.015-2.681-31.274-4.11c-39.495-5.361-56.651-6.255-118.841-6.255-61.654 0-76.487 0.715-117.054 6.076-42.89 5.54-47.536 6.255-51.468 8.042-2.323 1.072-6.076 1.787-8.757 1.787-7.148 0-40.746 8.042-76.487 18.407-26.628 7.863-35.92 10.723-37.35 12.152-1.072 0.894-2.859 1.608-4.289 1.608-2.323 0-28.415 9.65-38.78 14.297-1.966 0.894-6.791 2.859-10.723 4.646-3.932 1.608-14.654 6.434-23.947 10.723-9.114 4.289-16.977 7.863-17.335 7.863s-8.221 4.11-17.156 9.293c-9.114 5.004-20.73 11.437-25.913 14.297-11.795 6.255-49.502 31.095-60.046 39.316-2.145 1.787-4.646 3.753-5.719 4.468-25.555 19.837-31.631 24.84-43.605 35.384-13.582 11.973-45.213 44.141-55.578 56.293-5.361 6.434-10.186 11.973-10.901 12.51-3.038 2.502-31.095 41.103-38.422 53.076-4.646 7.684-9.472 15.19-10.723 16.62s-9.472 16.977-18.407 34.312c-11.259 21.802-16.262 33.597-16.262 37.708 0 5.719 4.289 17.335 12.51 33.418 12.331 24.84 16.084 31.453 25.555 47.358 15.905 26.27 32.704 49.86 52.719 74.164 9.114 10.901 58.974 61.118 67.552 67.909 3.038 2.502 11.080 8.935 17.871 14.475 34.669 28.057 84.529 59.689 126.704 80.24 29.844 14.475 45.213 21.445 47 21.445 1.072 0 4.11 1.251 6.791 2.681 2.859 1.43 6.434 2.681 8.042 2.681 1.43 0 3.395 0.715 4.468 1.608 1.787 1.787 43.426 16.084 63.263 21.624 32.525 9.114 66.301 17.156 79.525 18.943 5.004 0.536 11.437 1.787 14.297 2.681 3.038 0.894 12.152 2.502 20.551 3.395s26.091 2.859 39.316 4.468c24.126 2.859 89.176 6.076 102.757 5.183 3.932-0.357 21.266-1.072 38.422-1.608zM754.15 781.47c-29.129-4.825-50.753-10.186-63.799-15.726-3.038-1.251-6.791-2.323-8.221-2.323-1.608 0-3.217-0.715-3.753-1.608s-3.217-2.145-5.897-2.859c-7.684-1.787-42.711-19.837-56.829-29.129-29.129-18.943-65.765-52.362-82.206-74.521-3.038-3.932-6.434-8.221-7.684-9.65-6.612-6.97-22.339-33.597-32.704-55.578-3.932-8.399-7.863-16.62-8.935-18.228-0.894-1.787-1.608-4.11-1.608-5.183s-1.072-4.468-2.502-7.506c-3.217-7.506-8.042-22.875-9.829-32.168-0.894-4.11-3.217-15.548-5.183-25.377-8.221-40.567-5.719-99.362 5.897-141.18 1.608-5.897 3.753-13.939 4.825-17.871 0.894-3.932 2.502-8.757 3.217-10.723 0.894-1.966 3.753-8.757 6.434-15.19 4.468-11.080 13.224-29.308 17.335-36.635 9.65-16.799 14.297-23.768 26.091-39.316 23.768-31.631 61.118-65.586 94.001-85.244 21.802-13.046 58.616-30.023 70.59-32.704 3.395-0.715 7.327-1.966 8.935-2.859 1.43-0.715 10.723-3.038 20.551-5.183s19.479-4.468 21.445-5.183c9.472-3.574 95.788-3.932 112.586-0.357 26.806 5.719 43.247 9.472 46.464 10.901 1.966 0.894 5.54 2.145 8.042 2.681 4.289 1.072 11.259 3.753 25.019 9.293 20.909 8.578 50.038 25.198 69.696 39.852 18.407 13.582 23.59 18.050 41.103 35.742 31.631 31.631 55.4 67.552 72.198 109.012 2.681 6.434 5.54 13.224 6.434 15.19 0.715 1.966 2.323 6.791 3.217 10.723 1.072 3.932 3.217 11.616 4.825 16.977 4.825 16.799 8.399 39.316 9.829 61.654 1.43 24.126 0.536 60.761-1.787 71.483-0.894 3.932-2.859 13.582-4.468 21.445-3.753 17.513-9.293 37.35-12.688 45.035-1.43 3.038-2.502 6.434-2.502 7.506s-0.715 3.395-1.608 5.183c-0.894 1.608-5.54 11.080-10.544 20.909-9.65 19.658-15.012 29.844-16.441 31.274-0.536 0.536-4.11 5.719-8.042 11.616s-7.684 11.616-8.399 12.51c-4.825 6.791-28.415 32.704-40.031 43.962-42.533 41.103-100.434 71.483-160.659 84.529-37.35 8.042-89.712 10.186-122.415 4.825zM823.846 674.066c43.962-5.361 75.594-16.799 110.621-40.209 24.84-16.262 57.008-51.289 69.339-75.058 5.54-10.901 9.829-19.301 11.616-22.875 3.574-7.327 12.688-36.814 14.297-45.928 4.11-24.662 5.54-49.145 3.395-66.122-2.502-21.266-5.004-35.563-6.97-40.209-0.894-1.966-3.395-9.114-5.719-16.084-6.255-18.764-22.339-48.787-31.989-59.689-1.966-2.323-3.753-4.825-3.753-5.54 0-2.859-31.095-32.704-43.962-42.175-17.871-13.224-45.928-27.521-66.122-33.597-8.757-2.681-18.228-5.719-21.266-6.612-2.859-0.894-15.548-2.681-28.236-3.753-23.232-2.145-61.297-0.179-73.628 3.753-2.859 0.894-12.51 3.932-21.266 6.612-20.373 6.076-48.609 20.551-66.48 33.955-13.403 10.008-43.605 39.137-43.605 41.997 0 0.715-1.072 2.502-2.323 3.753-9.472 9.65-28.415 44.856-34.491 63.978-1.608 5.361-3.753 11.437-4.468 13.403-2.681 6.97-6.97 32.704-8.042 48.43-0.894 14.654 0.536 33.776 4.468 57.902 4.11 25.555 23.232 68.624 40.388 91.32 9.472 12.51 31.274 34.848 43.784 44.677 44.677 35.563 110.084 54.506 164.412 48.073zM765.766 609.553c-29.844-6.612-52.004-18.228-81.849-42.711-10.901-8.935-31.81-40.388-38.78-58.080-2.145-5.897-4.646-12.331-5.54-14.297-3.038-7.148-6.97-33.776-6.97-46.286 0-18.050 3.932-28.593 15.012-40.031 12.688-13.046 21.624-16.977 39.673-17.156 12.51-0.179 15.726 0.536 24.483 5.004 18.586 9.293 28.951 24.84 30.738 46.286 1.608 19.837 5.719 30.559 16.084 41.46 12.51 13.403 22.875 18.586 39.852 19.837 24.304 1.787 39.495 9.829 50.753 26.628 5.54 8.399 5.897 10.008 6.434 26.27 0.536 15.369 0.179 18.407-3.574 25.913-5.54 11.259-16.262 21.624-27.879 26.806-7.863 3.395-11.973 4.11-26.806 3.932-9.472-0.179-23.768-1.787-31.631-3.574z" />
<glyph unicode="&#xe90e;" horiz-adv-x="1603" d="M1602.072 254.486c-0.75 22.281-17.444 40.259-39.48 39.5-83.759-0.085-151.786 69.757-151.868 154.497-0.085 84.696 68.986 153.484 152.787 153.569 10.434-0.634 21.199 3.967 27.877 10.97 6.718 7.005 12.562 17.219 11.184 28.95l0.167 278.483c-0.75 22.282-17.444 40.26-39.48 39.5l-1521.61-1.857c-10.433 0.633-21.201-3.967-27.878-10.972-1.169-2.026-5.551-4.937-6.719-7.005-3.506-6.161-5.008-13.462-5.342-18.737l-0.167-278.483c0.751-22.281 17.445-40.259 39.48-39.5 40.857 0.634 79.628-16.584 106.129-45.788 29.714-28.316 45.114-67.393 43.737-107.527 0.626-41.314-16.401-80.518-45.281-107.315-28.003-30.048-66.649-45.619-106.338-44.228-10.433 0.634-21.201-3.967-27.878-10.972-6.719-7.005-12.562-17.217-11.185-28.948l-0.167-278.483c1.586-25.489 18.321-43.467 40.356-42.707l1522.486-1.349c10.434-0.634 21.201 3.967 27.88 10.972 6.718 7.003 12.562 17.217 11.184 28.948l0.167 278.483h-0.042zM1523.572 13.731l-278.573-0.717-0.374 235.099-77.374 1.605 0.374-235.101-1089.958 2.026 0.876 204.295c47.576 7.638 89.769 29.371 123.281 64.356 43.446 42.832 66.982 102.801 66.439 163.19 0.628 62.415-23.078 120.017-65.437 163.949-34.597 33.93-76.206 55.536-122.822 63.766l0.876 204.293 1087.913-0.844 0.376-235.099 77.374-1.605-0.376 235.101 278.573 0.717-0.875-204.294c-107.965-18.695-189.097-113.223-189.723-227.546-0.668-114.321 82.592-209.484 190.306-228.895l-0.877-204.295z" />
<glyph unicode="&#xe90f;" horiz-adv-x="1603" d="M1169.918 584.299l-0.378-274.136 77.125-0.109 0.378 274.136-77.125 0.109z" />
<glyph unicode="&#xe910;" horiz-adv-x="1603" d="M952.863 478.996l-136.134 68.831-21.159 151.668c-2.213 14.982-12.021 26.165-25.333 31.23s-29.255 0.759-40.357-9.116l-106.171-109.891-149.114 27.263c-14.481 2.996-28.42-2.491-38.645-15.616l-2.337-4.094c-7.010-12.279-6.803-26.036-0.209-38.106l70.24-136.731-70.073-136.477c-7.010-12.279-5.966-29.286 3.84-40.47 8.639-13.252 21.911-18.314 36.726-16.037l149.157 24.645 104.292-110.227c9.808-11.184 26.292-15.405 40.232-9.917 13.938 5.485 22.995 16.584 25.958 31.228l22.034 156.396 136.052 67.775c11.936 6.667 22.121 19.792 21.911 33.592s-7.68 29.075-20.95 34.139l0.040-0.085zM763.185 407.171c-11.936-6.667-19.783-15.741-21.62-28.318l-13.020-93.431-63.978 67.522c-8.931 7.976-22.243 13.038-33.845 11.647l-93.151-16.457 43.654 80.898c5.843 10.211 5.634 24.011-0.959 36.080l-44.154 83.22 91.229-15.191c12.479-1.816 25.208 1.603 33.095 10.634l65.899 67.9 14.229-93.010c1.378-11.731 9.975-24.983 21.286-28.866l84.384-41.229-83.049-41.399z" />
<glyph unicode="&#xe911;" horiz-adv-x="1396" d="M1349.818 29.091h-1303.273c-25.72 0-46.545-20.852-46.545-46.545s20.826-46.545 46.545-46.545h1303.273c25.719 0 46.545 20.852 46.545 46.545s-20.827 46.545-46.545 46.545z" />
<glyph unicode="&#xe912;" horiz-adv-x="1396" d="M884.364 773.818h-139.636v93.091h93.091c25.719 0 46.545 20.852 46.545 46.545s-20.827 46.545-46.545 46.545h-279.273c-25.719 0-46.545-20.852-46.545-46.545s20.827-46.545 46.545-46.545h93.091v-93.091h-139.636c-282.305 0-512-229.695-512-512 0-77 62.637-139.636 139.636-139.636h1117.091c77 0 139.636 62.636 139.636 139.636 0 282.305-229.669 512-512 512zM1256.727 215.273h-1117.091c-25.693 0-46.545 20.878-46.545 46.545 0 230.973 187.911 418.909 418.909 418.909h372.364c230.998 0 418.909-187.937 418.909-418.909 0-25.667-20.852-46.545-46.545-46.545z" />
<glyph unicode="&#xe913;" horiz-adv-x="1396" d="M512 587.636c-137.695 0-261.134-87.266-307.173-217.195-8.591-24.229 4.096-50.828 28.326-59.418 5.134-1.836 10.373-2.714 15.532-2.714 19.151 0 37.104 11.916 43.86 31.013 32.901 92.798 121.097 155.169 219.455 155.169 25.721 0 46.545 20.852 46.545 46.545s-20.824 46.545-46.545 46.545v0.054z" />
<glyph unicode="&#xe914;" d="M512-49.778c274.916 0 497.778 222.862 497.778 497.778s-222.862 497.778-497.778 497.778c-274.915 0-497.778-222.863-497.778-497.778s222.863-497.778 497.778-497.778z" />
<glyph unicode="&#xe915;" d="M587.090 380.331v0.085c-3.578-0.25-22.056-1.334-63.169-1.334-32.876 0-55.93 0.916-64.088 1.334v-0.085c-126.424 5.578-220.725 27.548-220.725 53.934 0 26.3 94.383 48.356 220.725 53.934v-85.976c8.24-0.583 31.96-1.997 64.671-1.997 39.285 0 58.926 1.664 62.586 1.997v85.894c126.177-5.66 220.228-27.634 220.228-53.934 0-26.303-94.134-48.273-220.228-53.934v0.082zM587.090 497.018v76.905h176.031v117.271h-479.236v-117.271h176.030v-76.905c-143.070-6.574-250.603-34.873-250.603-68.83s107.616-62.256 250.603-68.915v-246.525h127.26v246.525c142.822 6.576 250.189 34.876 250.189 68.833 0 33.874-107.366 62.256-250.189 68.83z" />
<glyph unicode="&#xe916;" glyph-name="cash" d="M863.98 799.982c45.702-45.703 81.59-98.933 106.664-158.213 25.967-61.392 39.134-126.586 39.134-193.769 0-67.18-13.167-132.375-39.134-193.769-25.074-59.278-60.959-112.509-106.661-158.214-45.705-45.702-98.935-81.587-158.214-106.661-61.394-25.967-126.589-39.134-193.769-39.134-67.183 0-132.375 13.167-193.769 39.134-59.279 25.074-112.51 60.959-158.213 106.661-45.703 45.705-81.589 98.935-106.662 158.214-25.967 61.394-39.134 126.589-39.134 193.769 0 67.183 13.167 132.378 39.134 193.769 25.073 59.279 60.958 112.51 106.662 158.213s98.933 81.589 158.213 106.662c61.392 25.967 126.586 39.134 193.769 39.134 67.18 0 132.375-13.167 193.766-39.134 59.281-25.073 112.512-60.96 158.214-106.662zM90.246 448c0-232.553 189.198-421.751 421.754-421.751 232.553 0 421.751 189.198 421.751 421.751 0 232.556-189.198 421.754-421.751 421.754-232.556 0-421.754-189.198-421.754-421.754zM741.879 486.292c0-21.16-17.152-38.312-38.312-38.312h-154.453v-76.629h154.453c21.16 0 38.312-17.152 38.312-38.312 0-21.163-17.152-38.315-38.312-38.315h-154.453v-86.207c0-21.16-17.152-38.312-38.315-38.312-21.16 0-38.312 17.152-38.312 38.312v86.207h-152.058c-21.16 0-38.315 17.152-38.315 38.315 0 21.16 17.155 38.312 38.315 38.312h152.058v76.629h-152.058c-21.16 0-38.315 17.152-38.315 38.312 0 21.163 17.155 38.315 38.315 38.315h106.854l-87.159 87.157c-14.962 14.962-14.962 39.219 0 54.184 14.965 14.963 39.222 14.963 54.184 0l117.689-117.686 117.689 117.689c14.962 14.962 39.222 14.962 54.184 0 14.965-14.965 14.962-39.222 0-54.184l-87.157-87.159h106.854c21.16 0 38.312-17.152 38.312-38.315z" />
<glyph unicode="&#xe917;" d="M137.376 214.614l95.63 95.63c5.82 6.022 13.979 9.768 23.009 9.768 9.142 0 17.391-3.838 23.225-9.992l95.405-95.405c12.471-12.489 12.489-32.768 0-45.256-12.508-12.489-32.786-12.471-45.256 0l-41.375 41.373v-114.714c0-17.664-14.336-32-32-32-17.662 0-31.998 14.336-31.998 32v114.724l-41.384-41.383c-12.488-12.489-32.767-12.489-45.256 0-12.489 12.506-12.471 32.785 0 45.256z" />
<glyph unicode="&#xe918;" d="M64.016 801.046c-0.011-0.34-0.016-0.682-0.016-1.025v-438.765c-39.824-45.134-64-104.39-64-169.242 0-141.274 114.723-256.015 256.013-256.015 141.292 0 255.997 114.723 255.997 256.015 0 0 0 0 0 0h287.977c25.471 0 49.882 10.111 67.875 28.124 18.031 17.993 28.124 42.404 28.124 67.875v95.98h32.018c53.028 0 95.998 43.008 95.998 95.998v64.036c0 52.99-42.97 95.998-95.998 95.998h-32.018v95.997c0 25.471-10.111 49.884-28.124 67.876-10.202 10.224-22.487 17.903-35.86 22.631v37.473c0 25.453-10.111 49.883-28.122 67.875-17.975 17.993-42.404 28.123-67.876 28.123h-575.989c-25.472 0-49.883-10.112-67.875-28.123-18.011-18.011-28.123-42.44-28.123-67.875v-62.956zM768.003 832.020h-639.988v31.982c0 8.503 3.365 16.622 9.38 22.637 5.979 5.998 14.135 9.362 22.619 9.362h575.989c8.486 0 16.658-3.365 22.639-9.362 5.997-6.016 9.361-14.153 9.361-22.637v-31.982zM150.111 425.11c-7.569-3.447-14.94-7.252-22.094-11.394v354.287h671.988c8.484 0 16.658-3.364 22.637-9.381 5.999-5.979 9.363-14.135 9.363-22.619v-95.979h-31.998c-50.156 0-91.314-38.476-95.625-87.483-0.248-2.813-0.375-5.658-0.375-8.536v-63.998c0-1.716 0.046-3.422 0.135-5.117 0.938-17.928 6.8-34.56 16.258-48.562 17.249-25.537 46.463-42.337 79.606-42.337h31.998v-95.98c0-8.484-3.346-16.64-9.363-22.619-5.997-6.017-14.153-9.381-22.637-9.381h-296.075c-8.702 33.756-24.123 64.823-44.75 91.688-46.802 60.978-120.419 100.309-203.165 100.309-37.772 0-73.624-8.184-105.904-22.898zM118.367 325.814c0.171 0.167 0.34 0.335 0.507 0.505 17.381 17.737 38.169 32.126 61.298 42.096 23.268 10.022 48.909 15.576 75.84 15.576 105.964 0 191.979-86.016 191.979-191.979s-86.014-191.997-191.979-191.997-191.996 86.014-191.996 191.997c0 52.016 20.719 99.217 54.35 133.8zM928.003 575.988c17.664 0 32-14.298 32-31.962v-64.036c0-17.664-14.336-31.962-32-31.962h-127.997c-17.664 0-32 14.298-32 31.962v64.036c0 17.664 14.336 31.962 32 31.962h127.997z" />
<glyph unicode="&#xe919;" horiz-adv-x="1460" d="M1419.186 632.335c10.739 0 21.062 4.318 28.672 11.972 7.612 7.689 11.887 18.116 11.887 28.964v122.879c0 43.464-17.101 85.137-47.511 115.857s-71.667 47.993-114.695 47.993h-1135.333c-43.028 0-84.283-17.273-114.694-47.993s-47.511-72.393-47.511-115.857v-696.299c0-43.466 17.1-85.138 47.511-115.858s71.666-47.993 114.694-47.993h1135.333c43.028 0 84.284 17.273 114.695 47.993s47.511 72.392 47.511 115.858v368.636c0 22.609-18.142 40.971-40.559 40.971-22.419 0-40.526-18.362-40.526-40.971v-368.636c0-21.733-8.549-42.553-23.772-57.93s-35.833-23.979-57.348-23.979h-1135.333c-21.514 0-42.124 8.636-57.347 23.979s-23.773 36.197-23.773 57.93v696.299c0 21.732 8.55 42.551 23.773 57.929s35.833 24.014 57.347 24.014h1135.333c21.515 0 42.126-8.637 57.348-24.014s23.772-36.197 23.772-57.929v-122.879c0-10.848 4.275-21.275 11.852-28.964 7.61-7.689 17.933-11.972 28.674-11.972z" />
<glyph unicode="&#xe91a;" horiz-adv-x="1460" d="M1257.014 714.244h-527.142c-22.382 0-40.559-18.325-40.559-40.971s18.177-40.936 40.559-40.936h527.142c22.382 0 40.524 18.327 40.524 40.936s-18.142 40.971-40.524 40.971z" />
<glyph unicode="&#xe91b;" horiz-adv-x="1460" d="M729.872 468.487h364.936c22.382 0 40.561 18.325 40.561 40.971s-18.179 40.936-40.561 40.936h-364.936c-22.382 0-40.559-18.325-40.559-40.936 0-22.609 18.177-40.971 40.559-40.971z" />
<glyph unicode="&#xe91c;" horiz-adv-x="1460" d="M770.431 304.638h486.583c22.382 0 40.524 18.36 40.524 40.971 0 22.609-18.142 40.971-40.524 40.971h-486.583c-22.417 0-40.559-18.362-40.559-40.971 0-22.611 18.142-40.971 40.559-40.971z" />
<glyph unicode="&#xe91d;" horiz-adv-x="1460" d="M560.411 437.638c37.977 33.862 60.531 81.665 62.431 132.403 1.898 50.736-17.014 100.084-52.394 136.65s-84.131 57.224-135.131 57.224c-50.997 0-99.748-20.658-135.129-57.224s-54.294-85.914-52.394-136.65c1.9-50.738 24.415-98.541 62.431-132.403-52.394-18.303-97.812-52.322-129.977-97.422s-49.448-99.040-49.526-154.334c0-11.43 6.123-21.97 16.043-27.724 9.921-5.715 22.167-5.715 32.087 0 9.959 5.715 16.044 16.295 16.044 27.724 0.077 53.865 21.546 105.529 59.795 143.602 38.25 38.071 90.062 59.501 144.12 59.579h73.824c54.061-0.078 105.91-21.469 144.12-59.579 38.21-38.112 59.719-89.737 59.795-143.602 0-11.43 6.124-21.97 16.044-27.724 9.92-5.715 22.166-5.715 32.125 0 9.922 5.715 16.044 16.295 16.044 27.724-0.115 55.409-17.554 109.429-49.875 154.528-32.319 45.1-77.892 79.079-130.479 97.228zM435.318 698.351c32.552 0 63.786-12.896 86.846-35.833 23.018-22.935 35.962-54.056 35.962-86.53s-12.944-63.558-35.962-86.532c-23.020-22.935-54.255-35.831-86.846-35.831-32.589 0-63.786 12.896-86.844 35.831-23.018 22.938-35.962 54.058-35.962 86.532s12.944 63.595 35.962 86.53c23.018 22.938 54.255 35.833 86.844 35.833z" />
<glyph unicode="&#xe91e;" glyph-name="info-circle" d="M512 0c-247.424 0-448 200.576-448 448s200.576 448 448 448v0c247.424 0 448-200.576 448-448s-200.576-448-448-448v0zM512-64c282.77 0 512 229.23 512 512s-229.23 512-512 512v0c-282.77 0-512-229.23-512-512s229.23-512 512-512v0zM571.52 538.368l-146.56-18.368-5.248-24.32 28.8-5.312c18.816-4.48 22.528-11.264 18.432-30.016l-47.232-221.952c-12.416-57.408 6.72-84.416 51.712-84.416 34.88 0 75.392 16.128 93.76 38.272l5.632 26.624c-12.8-11.264-31.488-15.744-43.904-15.744-17.6 0-24 12.352-19.456 34.112l64.064 301.12zM576 672c0-35.346-28.654-64-64-64s-64 28.654-64 64v0c0 35.346 28.654 64 64 64s64-28.654 64-64v0z" />
<glyph unicode="&#xe91f;" glyph-name="caret-down-fill" d="M463.808 247.040l-306.944 350.848c-36.224 41.28-6.784 106.112 48.192 106.112h613.888c0.016 0 0.036 0 0.055 0 35.346 0 64-28.654 64-64 0-16.19-6.012-30.976-15.924-42.247l0.062 0.071-306.944-350.72c-11.793-13.445-29.007-21.887-48.192-21.887s-36.399 8.442-48.129 21.814l-0.063 0.073z" />
<glyph unicode="&#xe920;" glyph-name="x-circle" d="M512 0c-247.424 0-448 200.576-448 448s200.576 448 448 448v0c247.424 0 448-200.576 448-448s-200.576-448-448-448v0zM512-64c282.77 0 512 229.23 512 512s-229.23 512-512 512v0c-282.77 0-512-229.23-512-512s229.23-512 512-512v0zM297.344 662.656c5.794 5.808 13.805 9.401 22.656 9.401s16.862-3.593 22.655-9.401l169.345-169.409 169.344 169.408c5.798 5.798 13.808 9.384 22.656 9.384 17.695 0 32.040-14.345 32.040-32.040 0-8.848-3.586-16.858-9.384-22.656v0l-169.408-169.344 169.408-169.344c5.798-5.798 9.384-13.808 9.384-22.656 0-17.695-14.345-32.040-32.040-32.040-8.848 0-16.858 3.586-22.656 9.384v0l-169.344 169.408-169.344-169.408c-5.798-5.798-13.808-9.384-22.656-9.384-17.695 0-32.040 14.345-32.040 32.040 0 8.848 3.586 16.858 9.384 22.656v0l169.408 169.344-169.408 169.344c-5.808 5.794-9.401 13.805-9.401 22.656s3.593 16.862 9.401 22.655l0.001 0.001z" />
<glyph unicode="&#xe921;" glyph-name="x-lg" d="M137.344 777.344c-5.798 5.798-9.384 13.808-9.384 22.656 0 17.695 14.345 32.040 32.040 32.040 8.848 0 16.858-3.586 22.656-9.384v0l329.344-329.408 329.344 329.408c5.798 5.798 13.808 9.384 22.656 9.384 17.695 0 32.040-14.345 32.040-32.040 0-8.848-3.586-16.858-9.384-22.656v0l-329.408-329.344 329.408-329.344c5.798-5.798 9.384-13.808 9.384-22.656 0-17.695-14.345-32.040-32.040-32.040-8.848 0-16.858 3.586-22.656 9.384v0l-329.344 329.408-329.344-329.408c-5.798-5.798-13.808-9.384-22.656-9.384-17.695 0-32.040 14.345-32.040 32.040 0 8.848 3.586 16.858 9.384 22.656v0l329.408 329.344-329.408 329.344z" />
<glyph unicode="&#xe922;" glyph-name="x-octagon" d="M290.56 950.656c5.786 5.772 13.772 9.342 22.592 9.344h397.696c8.82-0.002 16.806-3.572 22.593-9.345l281.215-281.215c5.772-5.786 9.342-13.772 9.344-22.592v0-397.696c-0.002-8.82-3.572-16.806-9.345-22.593l-281.215-281.215c-5.786-5.772-13.772-9.342-22.592-9.344h-397.696c-8.82 0.002-16.806 3.572-22.593 9.345l-281.215 281.215c-5.772 5.786-9.342 13.772-9.344 22.592v0 397.696c0.002 8.82 3.572 16.806 9.345 22.593l281.215 281.215zM326.4 896l-262.4-262.4v-371.2l262.4-262.4h371.2l262.4 262.4v371.2l-262.4 262.4h-371.2zM297.344 662.656c5.794 5.808 13.805 9.401 22.656 9.401s16.862-3.593 22.655-9.401l169.345-169.409 169.344 169.408c5.798 5.798 13.808 9.384 22.656 9.384 17.695 0 32.040-14.345 32.040-32.040 0-8.848-3.586-16.858-9.384-22.656v0l-169.408-169.344 169.408-169.344c5.798-5.798 9.384-13.808 9.384-22.656 0-17.695-14.345-32.040-32.040-32.040-8.848 0-16.858 3.586-22.656 9.384v0l-169.344 169.408-169.344-169.408c-5.798-5.798-13.808-9.384-22.656-9.384-17.695 0-32.040 14.345-32.040 32.040 0 8.848 3.586 16.858 9.384 22.656v0l169.408 169.344-169.408 169.344c-5.808 5.794-9.401 13.805-9.401 22.656s3.593 16.862 9.401 22.655l0.001 0.001z" />
<glyph unicode="&#xe923;" glyph-name="x-md" d="M297.344 662.656c5.794 5.808 13.805 9.401 22.656 9.401s16.862-3.593 22.655-9.401l169.345-169.409 169.344 169.408c5.798 5.798 13.808 9.384 22.656 9.384 17.695 0 32.040-14.345 32.040-32.040 0-8.848-3.586-16.858-9.384-22.656v0l-169.408-169.344 169.408-169.344c5.798-5.798 9.384-13.808 9.384-22.656 0-17.695-14.345-32.040-32.040-32.040-8.848 0-16.858 3.586-22.656 9.384v0l-169.344 169.408-169.344-169.408c-5.798-5.798-13.808-9.384-22.656-9.384-17.695 0-32.040 14.345-32.040 32.040 0 8.848 3.586 16.858 9.384 22.656v0l169.408 169.344-169.408 169.344c-5.808 5.794-9.401 13.805-9.401 22.656s3.593 16.862 9.401 22.655l0.001 0.001z" />
<glyph unicode="&#xe924;" glyph-name="check" d="M702.080 641.92c8.594 8.194 20.257 13.235 33.097 13.235 26.51 0 48-21.49 48-48 0-12.522-4.795-23.924-12.649-32.47l0.031 0.035-255.36-319.36c-8.791-9.449-21.296-15.341-35.177-15.341-13.256 0-25.257 5.373-33.943 14.061l-169.344 169.344c-9.411 8.787-15.277 21.267-15.277 35.117 0 26.51 21.49 48 48 48 13.85 0 26.33-5.866 35.092-15.249l0.026-0.028 134.016-133.952 222.272 283.2c0.417 0.512 0.836 0.971 1.278 1.406l0.002 0.002z" />
<glyph unicode="&#xe925;" glyph-name="exclamation-circle" d="M512 0c-247.424 0-448 200.576-448 448s200.576 448 448 448v0c247.424 0 448-200.576 448-448s-200.576-448-448-448v0zM512-64c282.77 0 512 229.23 512 512s-229.23 512-512 512v0c-282.77 0-512-229.23-512-512s229.23-512 512-512v0zM448.128 256c0 35.346 28.654 64 64 64s64-28.654 64-64v0c0-35.346-28.654-64-64-64s-64 28.654-64 64v0zM454.4 640.32c-0.204 1.824-0.32 3.938-0.32 6.080 0 31.988 25.932 57.92 57.92 57.92s57.92-25.932 57.92-57.92c0-2.142-0.116-4.256-0.343-6.338l0.023 0.258-22.4-224.448c-1.598-18.175-16.747-32.323-35.2-32.323s-33.602 14.149-35.19 32.189l-0.010 0.134-22.4 224.448z" />
<glyph unicode="&#xe926;" glyph-name="gear" d="M512 655.744c-114.734 0-207.744-93.010-207.744-207.744s93.010-207.744 207.744-207.744v0c114.734 0 207.744 93.010 207.744 207.744s-93.010 207.744-207.744 207.744v0zM368.256 448c0 79.388 64.356 143.744 143.744 143.744s143.744-64.356 143.744-143.744v0c0-79.388-64.356-143.744-143.744-143.744s-143.744 64.356-143.744 143.744v0zM626.944 874.048c-33.728 114.56-196.16 114.56-229.888 0l-6.016-20.416c-7.041-23.362-28.365-40.086-53.596-40.086-9.797 0-19.006 2.522-27.011 6.952l0.287-0.146-18.688 10.24c-104.96 57.088-219.712-57.728-162.56-162.624l10.176-18.688c4.284-7.719 6.806-16.927 6.806-26.724 0-25.23-16.723-46.555-39.69-53.493l-0.396-0.103-20.416-6.016c-114.56-33.728-114.56-196.16 0-229.888l20.416-6.016c23.362-7.041 40.086-28.365 40.086-53.596 0-9.797-2.522-19.006-6.952-27.011l0.146 0.287-10.24-18.688c-57.088-104.96 57.664-219.776 162.624-162.56l18.688 10.176c7.719 4.284 16.927 6.806 26.724 6.806 25.23 0 46.555-16.723 53.493-39.69l0.103-0.396 6.016-20.416c33.728-114.56 196.16-114.56 229.888 0l6.016 20.416c7.041 23.362 28.365 40.086 53.596 40.086 9.797 0 19.006-2.522 27.011-6.952l-0.287 0.146 18.688-10.24c104.96-57.152 219.776 57.728 162.56 162.624l-10.176 18.688c-4.284 7.719-6.806 16.927-6.806 26.724 0 25.23 16.723 46.555 39.69 53.493l0.396 0.103 20.416 6.016c114.56 33.728 114.56 196.16 0 229.888l-20.416 6.016c-23.362 7.041-40.086 28.365-40.086 53.596 0 9.797 2.522 19.006 6.952 27.011l-0.146-0.287 10.24 18.688c57.152 104.96-57.728 219.712-162.624 162.56l-18.688-10.176c-7.719-4.284-16.927-6.806-26.724-6.806-25.23 0-46.555 16.723-53.493 39.69l-0.103 0.396-6.016 20.416zM458.432 855.936c15.744 53.44 91.392 53.44 107.136 0l6.016-20.416c15.114-50.112 60.859-85.98 114.981-85.98 21.034 0 40.802 5.417 57.986 14.933l-0.615-0.312 18.624 10.24c48.896 26.56 102.4-26.88 75.776-75.84l-10.176-18.688c-9.179-16.551-14.582-36.294-14.582-57.299 0-54.132 35.881-99.883 85.157-114.768l0.849-0.22 20.352-6.016c53.44-15.744 53.44-91.392 0-107.136l-20.416-6.016c-50.112-15.114-85.98-60.859-85.98-114.981 0-21.034 5.417-40.802 14.933-57.986l-0.312 0.615 10.24-18.624c26.56-48.896-26.88-102.4-75.84-75.776l-18.624 10.176c-16.565 9.198-36.328 14.612-57.355 14.612-54.143 0-99.902-35.896-114.777-85.187l-0.22-0.849-6.016-20.352c-15.744-53.44-91.392-53.44-107.136 0l-6.016 20.416c-15.123 50.096-60.861 85.95-114.972 85.95-21.012 0-40.76-5.406-57.932-14.903l0.616 0.312-18.688-10.24c-48.896-26.56-102.4 26.88-75.776 75.84l10.176 18.624c9.222 16.583 14.651 36.37 14.651 57.426 0 54.134-35.883 99.886-85.162 114.77l-0.849 0.22-20.416 6.016c-53.44 15.744-53.44 91.392 0 107.136l20.416 6.016c50.081 15.133 85.92 60.863 85.92 114.963 0 20.99-5.395 40.719-14.873 57.878l0.313-0.617-10.24 18.688c-26.56 48.896 26.88 102.4 75.84 75.776l18.688-10.176c16.555-9.184 36.304-14.59 57.316-14.59 54.112 0 99.849 35.854 114.751 85.101l0.221 0.849 6.016 20.416z" />
<glyph unicode="&#xe927;" glyph-name="download" d="M32 326.4c17.673 0 32-14.327 32-32v0-160c0-35.346 28.654-64 64-64v0h768c35.346 0 64 28.654 64 64v0 160c0 17.673 14.327 32 32 32s32-14.327 32-32v0-160c0-70.692-57.308-128-128-128v0h-768c-70.692 0-128 57.308-128 128v0 160c0 17.673 14.327 32 32 32v0zM489.344 201.344c5.794-5.808 13.805-9.401 22.656-9.401s16.862 3.593 22.655 9.401l192.001 192.001c5.798 5.798 9.384 13.808 9.384 22.656 0 17.695-14.345 32.040-32.040 32.040-8.848 0-16.858-3.586-22.656-9.384v0l-137.344-137.408v562.752c0 17.673-14.327 32-32 32s-32-14.327-32-32v0-562.752l-137.344 137.408c-5.798 5.798-13.808 9.384-22.656 9.384-17.695 0-32.040-14.345-32.040-32.040 0-8.848 3.586-16.858 9.384-22.656v0l192-192z" />
<glyph unicode="&#xe928;" glyph-name="bell" d="M512-64c70.692 0 128 57.308 128 128v0h-256c0-70.692 57.308-128 128-128v0zM512 837.248l-51.008-10.304c-117.78-24.627-204.978-127.601-204.992-250.943v-0.001c0-40.192-8.576-140.608-29.376-239.488-10.24-49.088-24.064-100.224-42.432-144.512h655.616c-18.368 44.288-32.128 95.36-42.432 144.512-20.8 98.88-29.376 199.296-29.376 239.488-0.046 123.317-87.233 226.257-203.325 250.588l-1.667 0.292-51.008 10.432zM910.080 192c14.272-28.608 30.784-51.264 49.92-64h-896c19.136 12.736 35.648 35.392 49.92 64 57.6 115.2 78.080 327.68 78.080 384 0 154.88 110.080 284.16 256.32 313.664-0.204 1.917-0.32 4.141-0.32 6.392 0 35.346 28.654 64 64 64s64-28.654 64-64c0-2.251-0.116-4.475-0.343-6.666l0.023 0.274c147.26-30.739 256.3-159.465 256.32-313.661v-0.003c0-56.32 20.48-268.8 78.080-384z" />
<glyph unicode="&#xe929;" glyph-name="arrow-repeat" d="M738.176 512h251.648c8.834-0.003 15.994-7.166 15.994-16 0-3.907-1.4-7.487-3.726-10.265l0.020 0.025-125.824-151.040c-2.955-3.526-7.362-5.753-12.288-5.753s-9.333 2.226-12.268 5.728l-0.020 0.025-125.824 151.040c-2.306 2.753-3.706 6.333-3.706 10.24 0 8.834 7.16 15.997 15.994 16v0zM34.176 384h251.648c8.834 0.003 15.994 7.166 15.994 16 0 3.907-1.4 7.487-3.726 10.265l0.020-0.025-125.824 151.040c-2.955 3.526-7.362 5.753-12.288 5.753s-9.333-2.226-12.268-5.728l-0.020-0.025-125.824-151.040c-2.306-2.753-3.706-6.333-3.706-10.24 0-8.834 7.16-15.997 15.994-16v0zM512 768c-99.328 0-188.16-45.248-246.848-116.352-5.909-7.606-15.056-12.453-25.336-12.453-17.673 0-32 14.327-32 32 0 8.127 3.030 15.547 8.021 21.191l-0.030-0.034c70.969 85.478 177.258 139.507 296.167 139.507 189.444 0 346.858-137.14 378.381-317.559l0.333-2.3h-65.088c-30.866 147.103-159.515 255.981-313.598 256h-0.002zM198.4 384c30.901-147.075 159.551-255.916 313.622-255.916 99.099 0 187.681 45.029 246.402 115.742l0.424 0.526c5.909 7.606 15.056 12.453 25.336 12.453 17.673 0 32-14.327 32-32 0-8.127-3.030-15.547-8.021-21.191l0.030 0.034c-70.969-85.478-177.258-139.507-296.167-139.507-189.444 0-346.858 137.14-378.381 317.559l-0.333 2.3h65.088z" />
<glyph unicode="&#xe92a;" glyph-name="foot-expert-fill" d="M225.963 954.709c-105.984-28.501-124.245-175.787-28.672-229.888 3.243-1.877-2.389-12.629-20.821-40.277-119.808-179.371-83.285-418.987 83.797-549.205l12.8-9.899-59.733-91.307c-32.939-50.176-59.733-91.648-59.733-92.331 0-1.365 447.317 116.907 481.28 127.147 261.461 79.36 367.957 408.064 203.947 629.419-13.824 18.432-16.384 24.064-12.629 26.112 98.475 55.125 74.069 211.285-36.181 231.765-8.363 1.536-15.189 2.731-15.189 2.389 0-0.171 4.608-13.312 10.24-29.355 20.651-59.221 5.461-92.331-53.419-114.688l-15.019-5.803-33.451 15.872c-111.275 52.224-239.616 51.2-349.355-3.072-28.16-13.824-39.595-12.288-71.509 9.387-34.987 23.723-40.789 48.469-23.381 98.304 5.632 16.043 10.24 29.355 10.24 29.867 0 1.365-4.437 0.512-23.211-4.437zM579.755 743.936c157.013-54.443 208.043-255.488 94.037-372.053-6.827-6.997-11.947-13.312-11.264-13.824s10.24-5.291 20.992-10.411c42.325-20.309 70.827-63.147 73.557-111.275l1.536-26.112-28.501-22.869c-35.84-28.672-33.109-30.208-34.304 21.333-1.365 51.2-8.021 66.048-36.693 81.067l-15.019 8.021h-148.821c-168.277-0.171-162.475 0.683-186.027-28.501-9.899-12.288-10.581-15.019-11.776-46.933-1.365-41.472-1.536-41.472-35.84-5.973-25.941 26.795-26.795 28.16-25.088 41.131 5.803 43.349 55.808 93.525 100.352 100.693 13.995 2.389 14.165 0.853-3.925 23.040-144.043 176.981 32.597 436.565 246.784 362.667zM471.893 688.811c-103.253-23.552-158.208-137.728-111.957-232.96 65.536-134.997 262.485-119.637 306.176 24.064 36.352 119.125-72.875 236.544-194.219 208.896z" />
<glyph unicode="&#xe92b;" glyph-name="foot-game-fill" d="M191.147 958.293c0-1.024-1.593-1.82-4.21-2.276-10.468-1.593-23.438-4.551-27.079-6.144-1.252-0.569-4.779-1.934-7.964-2.958-10.923-3.868-27.762-13.084-38.116-20.821-11.605-8.761-26.055-24.69-33.792-37.205-8.875-14.336-16.725-35.157-20.708-54.841-2.048-9.899-2.389-15.701-2.389-40.505 0-25.259 0.341-29.924 2.276-37.888 9.216-35.726 30.834-64.626 64.853-86.471 10.012-6.372 31.289-17.522 33.451-17.522 3.868 0 2.958-4.437-2.389-11.833-21.163-28.9-34.133-51.541-51.655-89.998-2.162-4.892-12.060-32.199-13.995-38.684-1.138-3.755-2.389-8.078-2.958-9.671-2.276-6.485-7.964-30.151-10.24-42.667-1.138-6.372-1.593-9.671-4.437-29.013-1.934-13.995-3.755-55.979-2.731-65.195 1.138-10.695 0.569-10.24 20.252-16.156 7.509-2.276 15.474-4.665 17.636-5.348s5.803-1.707 7.964-2.162c2.162-0.455 7.623-1.707 11.947-2.731 9.557-2.162 23.324-4.779 34.133-6.258 23.324-3.413 28.444-3.868 41.415-3.868l14.222-0.114-0.228 30.151c-0.569 60.871 4.551 113.095 16.384 169.529 3.641 17.408 8.533 36.523 12.857 50.631 0.569 1.934 2.162 7.282 3.527 11.947s3.186 10.126 4.096 12.174c0.91 1.934 1.593 4.551 1.593 5.803 0 1.365 0.455 2.617 1.024 3.072 0.569 0.341 1.365 2.162 1.82 4.096s1.479 4.779 2.389 6.485c0.91 1.707 1.593 3.868 1.593 4.892 0 0.91 0.455 2.162 0.91 2.844 0.455 0.569 2.048 4.096 3.527 7.851 6.372 16.839 22.414 50.404 31.744 66.56 2.731 4.665 5.348 9.33 5.916 10.24 2.048 3.527 9.671 15.588 14.677 23.324 6.713 10.354 27.307 38.002 34.361 46.194 6.030 7.054 6.485 7.851 3.755 7.851-3.527 0-30.492-11.719-50.404-21.959-10.012-5.12-11.15-5.461-14.791-4.324-2.276 0.683-7.396 1.934-11.492 2.958-10.24 2.389-22.642 6.144-26.965 8.078-1.934 0.91-3.755 1.593-4.096 1.593-2.617 0-30.265 14.45-35.499 18.432-22.756 17.636-31.175 28.217-39.367 48.697-2.389 5.916-1.934 33.564 0.569 43.236 6.827 25.486 9.557 33.451 17.522 51.2 1.82 4.096 4.437 9.785 5.803 12.743 1.252 2.958 2.389 5.916 2.389 6.485 0 0.683-2.048 1.252-4.551 1.252-3.186 0-4.551-0.455-4.551-1.707zM821.476 958.18c0-1.024 0.796-3.186 1.593-4.779 1.707-3.072 9.216-19.342 10.923-23.552 0.455-1.252 1.479-3.755 2.276-5.689 2.503-6.258 7.851-23.324 10.354-33.337 3.527-13.881 3.755-39.14 0.455-47.445-6.599-16.612-15.246-27.989-31.403-41.188-19.001-15.36-44.373-26.852-76.686-34.475-2.503-0.683-6.372-1.707-8.533-2.389-3.755-1.138-5.006-0.683-21.618 7.509-31.061 15.246-44.373 20.594-47.559 18.887-2.731-1.479-24.348-23.552-33.906-34.816-4.324-5.006-8.078-9.33-8.42-9.671-1.252-1.138-14.45-19.001-20.025-27.307-12.174-17.749-25.6-41.984-34.475-61.895l-2.276-5.348 5.348-2.276c2.958-1.252 6.372-2.731 7.623-3.3s5.461-2.389 9.33-3.982c24.69-10.012 65.764-30.265 86.812-42.667 3.186-1.82 6.030-3.413 6.258-3.413 1.365 0 32.313-19.228 51.769-32.199 18.432-12.288 48.583-34.588 64.512-47.673 61.326-50.745 115.143-111.388 151.097-170.212 2.389-3.868 4.779-6.713 5.234-6.258s1.479 8.988 2.048 18.887c0.91 13.881 0.796 24.007-0.455 45.852-0.91 15.36-1.934 28.444-2.276 28.9s-1.138 4.892-1.707 9.785c-0.683 5.006-1.707 11.264-2.276 14.108s-1.934 9.216-2.958 14.222c-4.551 22.073-16.612 60.644-24.235 77.369-17.863 39.14-31.175 62.464-50.517 88.633-3.641 4.892-6.372 9.671-6.030 10.468 0.341 0.91 5.006 3.641 10.354 6.258 34.133 16.043 63.033 40.846 76.345 65.536 0.796 1.365 2.162 3.982 3.186 5.689 2.844 5.348 6.030 12.971 9.33 23.097 3.072 9.444 3.186 10.468 3.641 40.732 0.341 27.762 0.114 32.199-1.934 43.008-7.851 39.936-25.6 70.428-53.589 91.932-20.366 15.588-48.242 27.307-73.045 30.834-3.641 0.455-5.461 1.252-5.461 2.389s-1.365 1.593-4.551 1.593c-3.413 0-4.551-0.455-4.551-1.82zM494.478 819.257c-9.102-0.455-10.923-1.138-18.318-7.282-1.252-1.024-7.168-5.916-13.084-10.809-29.013-24.007-64.171-63.602-87.381-98.304-2.276-3.413-4.665-7.054-5.348-8.192-0.569-1.024-5.12-8.192-9.899-16.043-10.354-16.953-28.103-52.907-35.612-71.908-2.958-7.509-5.803-14.677-6.372-15.929-3.527-8.192-16.043-50.176-20.252-68.836-0.683-2.844-1.934-8.42-2.958-12.516-1.82-8.078-3.3-16.612-5.12-29.013-0.683-4.324-1.707-11.036-2.276-14.791-1.252-7.396-2.958-24.576-4.551-44.373-1.252-16.27-1.365-88.292-0.114-90.34 0.796-1.252 3.072-1.252 12.743-0.228 6.485 0.683 14.45 1.707 17.522 2.389 23.552 4.551 36.068 7.282 44.373 9.557 20.935 6.030 42.439 13.084 52.338 17.18 1.934 0.796 6.258 2.503 9.671 3.868 9.785 3.868 9.785 3.868 29.582 13.653 10.354 5.12 20.025 10.24 21.504 11.378 2.844 2.162 2.844 2.276 1.365 10.468-8.988 52.907-8.875 116.736 0.341 172.828 0.91 5.916 2.276 12.857 2.844 15.36s1.934 8.647 2.958 13.653c1.138 5.006 2.958 12.743 4.21 17.067 1.252 4.437 3.527 12.516 5.006 18.091 1.593 5.575 3.186 10.695 3.755 11.378s1.593 3.072 2.162 5.234c0.683 2.162 2.276 6.827 3.641 10.24s2.844 7.509 3.3 9.102c1.479 4.437 5.234 12.629 15.588 33.564 9.899 19.911 10.24 20.594 15.588 28.786 1.707 2.731 3.072 5.12 3.072 5.461 0 1.252 26.396 39.708 28.444 41.415 0.455 0.341 2.958 3.413 5.575 6.827 2.731 3.413 8.078 9.785 11.947 14.108 3.755 4.21 7.054 8.192 7.282 8.761 0.683 1.593-4.324 3.186-14.564 4.437-5.348 0.569-13.198 1.593-17.636 2.162-8.875 1.252-47.332 2.162-61.326 1.593zM540.672 585.444c-1.365-4.21-5.12-24.235-7.054-37.774-1.365-9.216-2.731-26.169-4.096-49.948-0.796-13.084 0.796-44.487 3.072-61.668 4.779-36.75 1.82-31.744 26.624-44.373 11.264-5.689 22.528-11.492 25.031-12.971 29.696-17.067 64.853-42.325 87.609-62.692 27.989-25.145 54.5-53.703 71.908-77.71 19.456-26.852 33.223-49.493 45.397-74.752 4.665-9.671 9.216-19.115 10.126-20.821 0.91-1.82 1.707-3.755 1.707-4.324 0-0.683 0.91-3.3 2.162-5.916 1.138-2.617 3.413-8.647 5.12-13.312s3.755-10.354 4.665-12.516c2.048-5.689 8.192-25.714 9.785-32.199 0.683-2.958 1.82-5.689 2.389-6.030 1.707-1.138 21.618 20.935 35.612 39.367 3.072 4.096 5.916 7.623 6.258 7.964s1.593 2.162 2.958 3.982c1.252 1.934 4.665 6.827 7.623 11.036 2.958 4.324 5.348 7.964 5.348 8.192s1.934 3.413 4.437 7.054c10.24 15.701 27.193 49.607 34.816 69.86 1.024 2.844 2.276 5.916 2.731 6.827s1.82 4.665 2.844 8.192l2.048 6.372-10.012 20.366c-8.533 17.408-16.839 32.768-20.935 39.026-0.683 0.91-1.593 2.731-2.162 3.982s-3.868 6.599-7.396 11.833c-3.527 5.234-6.372 9.785-6.372 10.012 0 0.341-0.91 1.707-1.934 3.186-1.138 1.365-2.844 3.755-3.755 5.12-2.048 3.072-15.36 21.732-16.725 23.324-0.569 0.683-3.527 4.437-6.599 8.533-15.588 20.594-45.966 53.134-75.207 80.441-7.737 7.282-29.696 25.6-41.301 34.475-1.934 1.593-4.779 3.755-6.030 4.892-1.365 1.024-2.731 1.934-3.072 1.934s-2.276 1.479-4.21 3.186c-2.048 1.707-4.779 3.868-6.144 4.779s-4.665 3.3-7.282 5.234c-2.503 1.82-8.533 5.916-13.198 9.102-4.665 3.072-8.761 5.803-9.102 6.144-1.707 1.82-47.104 29.582-48.356 29.582-0.228 0-3.755 1.934-7.623 4.324-6.713 4.096-57.799 29.81-59.278 29.81-0.341 0-4.096 1.593-8.42 3.527-11.947 5.348-12.060 5.348-16.725 7.282-5.916 2.276-6.030 2.276-7.282-1.934zM505.742 333.312c-9.557-5.916-49.266-26.396-51.086-26.396-0.455 0-4.21-1.479-8.306-3.413-3.982-1.82-8.533-3.755-10.126-4.096-1.479-0.341-3.072-1.138-3.413-1.707s-1.365-1.024-2.389-1.024c-0.91 0-3.3-0.683-5.234-1.593-2.048-0.91-6.94-2.731-11.036-3.982-4.096-1.365-8.42-2.844-9.671-3.413-7.737-3.186-41.188-12.174-58.027-15.588-42.553-8.647-66.674-11.036-111.502-11.036-43.463 0-75.207 3.072-109.227 10.581-3.072 0.683-9.557 2.048-14.222 2.958-4.665 1.024-12.971 3.072-18.432 4.551-13.198 3.641-13.54 3.641-12.743-0.91 0.683-3.755 4.324-17.863 6.258-24.235 2.503-8.533 9.102-28.672 10.012-30.72 0.569-1.252 2.162-5.12 3.527-8.533 4.551-11.833 5.348-13.653 14.677-32.996 8.875-18.546 12.402-24.462 30.379-51.769 13.198-20.025 14.905-21.732 28.331-25.828 6.258-1.934 14.222-4.21 17.636-5.006 37.547-9.33 53.134-11.719 98.987-15.246 23.211-1.707 42.667-1.138 79.076 2.389 24.69 2.389 36.75 4.324 73.956 12.288 5.916 1.252 18.546 4.551 22.187 5.689 1.593 0.569 6.144 1.934 10.24 2.958 7.623 2.048 39.708 12.402 43.804 14.108 1.252 0.455 6.599 2.617 11.947 4.551 13.198 5.006 17.636 6.827 25.941 10.581 3.982 1.707 7.396 3.186 7.623 3.186 0.341 0 4.551 1.82 9.33 4.096 20.821 9.671 36.068 17.294 51.541 25.828 9.102 5.006 18.091 9.899 19.911 10.809 1.934 1.024 5.006 2.844 6.827 4.096 4.551 3.186 7.623 5.12 9.671 6.030 0.91 0.455 4.892 2.958 8.875 5.689s7.509 4.892 7.964 4.892c1.593 0.114 5.916 4.437 5.916 5.916-0.114 4.21-41.074 47.673-60.302 63.943-16.612 14.108-56.092 42.78-58.709 42.78-0.228 0-2.617 1.365-5.348 3.072-9.671 6.258-41.984 23.211-43.804 22.983-0.455-0.114-5.348-2.958-11.036-6.485zM717.938 148.196c-0.796-0.91-1.82-1.707-2.389-1.707s-3.755-1.934-7.054-4.21c-6.258-4.437-33.223-20.821-43.463-26.51-3.413-1.82-9.216-5.006-12.743-7.054-17.067-9.33-51.541-25.941-70.315-33.792-6.258-2.617-12.402-5.234-13.653-5.803s-5.12-2.162-8.533-3.413c-3.413-1.252-7.282-2.731-8.533-3.3-3.755-1.707-21.163-7.737-29.582-10.354-4.324-1.365-8.988-2.958-10.24-3.527-1.252-0.455-4.324-1.479-6.827-2.162s-7.054-2.048-10.24-3.072c-3.072-0.91-7.509-2.048-9.671-2.617-2.162-0.455-8.875-2.162-14.791-3.641-36.978-9.671-67.47-14.45-116.964-18.204-30.72-2.276-35.157-2.389-56.32-1.024-12.629 0.796-27.762 1.707-33.451 2.048-6.030 0.341-10.581 0.228-10.581-0.341 0.228-2.958 40.050-26.738 64.512-38.571 19.115-9.33 19.115-9.33 28.786-13.198 3.413-1.365 7.851-3.072 9.671-3.868 9.671-3.982 36.523-12.288 51.769-15.929 13.881-3.3 36.523-7.168 50.631-8.533 6.258-0.683 15.474-1.707 20.594-2.276 11.833-1.479 53.931-1.479 65.764 0 5.12 0.569 14.336 1.593 20.594 2.276 15.929 1.593 37.092 5.348 53.476 9.444 3.755 0.91 9.102 2.276 11.947 2.958s6.144 1.707 7.396 2.276c1.252 0.569 6.144 2.048 10.809 3.527 4.665 1.365 9.557 2.958 10.809 3.527 1.252 0.455 5.12 2.048 8.533 3.3s7.282 2.731 8.533 3.3c1.252 0.569 5.006 2.162 8.42 3.527 7.168 2.958 27.307 12.743 37.092 18.204 17.408 9.557 43.463 26.055 45.056 28.672 0.796 1.252-0.683 13.54-2.389 19.115-0.569 2.162-2.162 8.533-3.413 13.995s-2.731 11.15-3.3 12.516c-0.569 1.365-1.82 5.575-2.958 9.33-4.437 15.474-11.378 34.133-17.977 48.356-1.593 3.413-4.21 9.33-5.916 13.084-6.485 13.995-9.785 17.522-13.084 13.653z" />
<glyph unicode="&#xe92c;" glyph-name="foot-statement-fill" d="M191.488 954.539c-113.835-30.549-141.995-188.075-44.544-250.539l16.896-10.923-6.997-9.045c-238.421-309.419-30.72-745.643 355.157-745.643 373.931 0 591.701 431.787 367.275 728.064-7.851 10.411-15.36 20.48-16.555 22.528-1.365 2.219 5.461 9.216 16.384 16.725 96.427 66.389 65.536 219.989-50.005 249.515-25.6 6.656-24.747 8.021-12.629-22.016 26.453-65.707 15.189-99.669-42.496-128.512-29.867-14.848-31.061-14.848-63.147 1.365-119.296 59.733-277.845 59.733-398.507-0.171-30.549-15.189-35.157-15.36-64.683-0.853-55.808 27.307-67.243 65.365-39.424 131.925 10.411 25.259 10.752 25.088-16.725 17.579zM741.888 627.541c32.256-13.312 38.059-50.859 11.947-75.947l-10.24-9.728-227.499-0.853c-215.723-0.853-228.352-0.683-239.275 5.291-33.451 18.091-30.549 65.536 4.779 81.237 15.36 6.827 444.075 6.827 460.288 0zM751.275 450.389c25.6-17.067 25.6-55.979 0-73.045l-11.605-7.851h-228.523c-225.963 0-228.523 0-238.421 7.168-26.283 18.603-26.624 54.955-0.683 74.24 9.387 6.997 12.288 7.168 238.592 7.168l229.035 0.171 11.605-7.851zM753.835 276.139c26.112-25.088 20.309-62.635-11.947-75.947-16.725-7.168-447.829-6.997-461.312 0-34.645 18.091-36.864 63.488-3.755 81.237 10.923 5.973 23.552 6.144 239.275 5.291l227.499-0.853 10.24-9.728z" />
<glyph unicode="&#xe92d;" glyph-name="foot-me-fill" d="M286.72 949.931c-108.885-33.28-123.051-186.027-22.357-239.445 17.92-9.387 17.749-9.045 8.192-27.819-92.16-180.736 36.523-386.901 241.152-386.389 196.096 0.341 324.779 206.848 237.227 380.416-12.971 25.771-13.483 23.893 8.533 35.499 103.595 54.101 76.971 224.085-37.547 239.787l-15.872 2.219 5.973-13.312c28.672-64.853 18.773-101.717-34.133-127.659-30.379-15.019-40.96-15.872-66.219-5.632-58.197 23.552-127.147 25.771-183.296 5.803-41.472-14.677-48.469-15.531-68.267-7.851-69.461 26.453-81.749 62.464-47.957 141.653 2.901 6.656-8.704 7.851-25.429 2.731zM130.731 740.693c-125.44-136.533-143.36-388.096-39.936-561.493 20.48-34.304 21.163-34.987 30.72-24.405 22.699 25.259 124.416 82.091 183.125 102.4 38.912 13.653 38.229 12.459 15.36 27.648-117.589 78.336-175.787 246.613-130.219 375.808l4.779 13.653-18.432 19.285c-10.069 10.581-22.357 27.307-27.307 37.035-10.411 20.651-9.216 19.968-18.091 10.069zM871.936 730.965c-5.12-9.899-17.237-26.624-27.136-37.035l-17.92-18.944 8.533-32.427c34.816-130.56-22.699-283.307-134.827-357.717-22.869-15.189-23.040-14.677 10.923-25.771 53.76-17.408 138.411-63.829 184.32-100.864l13.483-10.923 5.973 7.851c110.421 144.555 111.104 384 1.536 548.693-32.427 48.64-33.621 49.323-44.885 27.136zM443.733 220.331c-83.968-9.557-187.221-50.517-256.853-101.888-35.499-26.112-34.816-23.552-10.24-46.251 178.347-163.669 447.659-174.251 637.44-25.259 59.904 47.104 59.904 45.568 4.949 82.091-109.227 72.875-245.589 105.984-375.296 91.307z" />
<glyph unicode="&#xe92e;" glyph-name="foot-game" d="M217.657 958.635c0.114-0.796-1.934-1.707-4.892-2.276-13.995-2.617-25.941-5.689-36.409-9.444-14.791-5.348-37.547-16.498-42.212-20.594-0.91-0.91-2.162-1.593-2.617-1.593-1.365 0-17.749-13.426-26.055-21.504-8.078-7.737-21.618-24.804-27.648-34.816-4.665-7.509-14.108-27.307-14.108-29.241 0-0.91-0.455-2.048-0.91-2.617-2.731-3.186-10.695-33.678-12.629-48.924-0.569-4.324-1.707-12.288-2.503-17.636-1.479-10.695-0.796-32.996 1.252-43.804 5.916-29.924 7.964-36.636 16.953-55.182 10.126-20.594 19.797-33.678 37.774-51.314 6.827-6.713 12.402-12.857 12.402-13.653 0-0.91-1.593-4.437-3.413-7.851-7.623-13.881-17.863-36.523-23.324-51.2-0.796-2.162-2.276-6.030-3.3-8.533-5.006-12.857-13.426-42.78-17.067-60.871-7.168-36.523-8.647-53.248-8.647-97.963 0-32.427 0.341-40.164 1.707-43.463 0.91-2.276 1.707-6.030 1.707-8.42 0-8.078 5.803-36.75 13.084-64.626 8.192-31.061 30.379-81.92 48.128-110.023 1.024-1.707 4.096-6.485 6.827-10.809 21.049-33.337 50.972-67.812 82.716-95.232 20.139-17.408 48.697-38.684 58.596-43.577 0.91-0.455 3.527-2.048 5.689-3.527s5.006-3.186 6.258-3.755c1.252-0.569 5.348-2.844 9.102-5.006 10.126-5.916 43.918-22.187 45.966-22.187 0.569 0 3.755-1.252 7.054-2.617 6.372-2.844 24.917-9.102 36.864-12.629 3.755-1.138 8.647-2.503 10.809-3.186 2.162-0.796 6.030-1.707 8.533-2.276 15.588-3.072 21.049-4.21 25.6-5.234 26.624-6.030 87.381-9.102 119.467-5.916 16.612 1.707 36.864 4.437 44.942 6.258 3.755 0.796 10.923 2.389 15.929 3.413 17.977 3.982 39.253 10.126 52.907 15.36 10.923 4.21 15.246 5.803 18.318 6.713 1.593 0.569 3.868 1.479 5.12 2.162 1.138 0.683 5.234 2.617 8.988 4.21 54.727 24.007 110.137 64.057 149.618 108.089 74.98 83.627 116.508 191.716 116.622 303.218 0 36.523-4.551 72.476-13.767 109.227-5.461 21.845-8.192 31.061-12.971 43.236-1.365 3.413-2.844 7.509-3.413 9.102-3.527 10.126-8.761 21.618-18.318 40.846l-8.875 17.522 13.426 13.198c29.81 29.355 45.056 57.685 53.020 97.963 4.551 23.324 2.958 63.602-3.413 89.884-2.503 10.126-6.485 24.348-7.509 26.169-0.455 0.91-2.503 5.803-4.551 10.809-2.162 5.006-5.348 11.947-7.054 15.36-3.072 5.803-16.27 25.941-17.749 27.307-0.455 0.341-3.755 4.096-7.509 8.42-8.192 9.444-22.983 22.073-35.044 30.037-4.892 3.3-9.102 5.916-9.33 5.916s-2.958 1.479-5.916 3.186c-15.019 8.761-45.511 19.001-63.26 21.276-3.186 0.455-5.689 1.365-6.144 2.389-0.91 2.389-33.337 2.389-33.337-0.114 0-0.91-1.365-1.934-3.072-2.389-2.958-0.683-9.102-3.413-14.564-6.485-7.168-4.096-16.498-14.677-20.252-22.869-5.461-11.833-5.803-13.54-5.803-26.283 0-13.198 1.252-18.318 7.509-30.151 1.479-2.844 4.324-9.216 6.485-14.222 2.048-5.006 4.437-10.809 5.348-12.857s1.593-4.779 1.593-6.030c0-1.252 0.569-3.3 1.252-4.551 0.569-1.252 1.593-5.12 2.162-8.761 1.024-5.689 0.796-6.827-1.479-10.24-3.868-5.689-17.408-14.222-30.379-19.001-8.875-3.3-10.468-3.3-18.887 0.569-11.605 5.348-13.881 6.258-23.211 10.126-9.899 3.982-33.678 12.060-43.008 14.564-47.104 12.516-75.776 16.27-122.539 16.27-32.996 0-46.649-1.024-72.249-5.234-18.773-3.072-47.9-9.899-60.644-14.108-2.048-0.569-6.713-2.162-10.468-3.413-3.755-1.138-9.671-3.3-13.084-4.551-3.413-1.365-7.509-2.844-9.102-3.413-3.982-1.252-10.354-4.096-21.39-9.216-10.468-4.892-12.060-5.12-17.522-2.844-2.048 0.91-6.599 2.731-10.012 4.096-8.192 3.3-20.935 11.833-23.893 15.929-2.844 3.982-2.844 5.916 0 16.384 3.641 13.653 6.827 21.732 16.498 42.212 11.036 22.983 9.671 43.463-4.096 62.578-7.168 10.012-16.156 16.384-30.948 22.073-1.707 0.683-2.844 1.82-2.503 2.389 0.455 0.683-5.348 1.138-16.384 1.138-12.743 0-17.067-0.341-16.839-1.365zM235.52 898.332c0-0.796-0.796-2.958-1.82-4.892-2.048-3.982-11.947-27.648-13.995-33.564-4.779-13.767-8.078-28.9-8.875-40.391-0.91-15.019 2.731-25.828 13.54-40.619 14.905-20.252 41.984-36.068 78.734-45.852 5.916-1.593 12.516-2.844 14.791-2.844 2.844 0 9.785 2.731 21.504 8.306 9.557 4.551 19.456 9.216 22.187 10.24 2.617 1.024 6.827 2.731 9.216 3.755 7.737 3.186 7.396 0.91-1.365-9.557-11.264-13.312-17.067-21.276-26.965-36.068-4.551-6.827-9.216-13.881-10.354-15.588-1.252-1.707-2.162-3.413-2.162-3.755s-1.365-2.731-3.072-5.461c-4.21-6.485-7.509-12.743-15.246-28.103-9.216-18.546-19.115-41.188-22.187-50.631-0.796-2.503-2.503-7.396-3.868-10.809s-2.844-7.737-3.413-9.671c-0.455-1.82-1.365-4.665-2.048-6.258-0.569-1.593-2.048-6.144-3.072-10.24s-2.389-8.647-3.072-10.126c-0.569-1.593-1.479-4.892-2.048-7.396-1.024-4.665-3.186-13.767-5.575-23.438-0.683-2.844-1.934-8.988-2.844-13.653-9.785-50.404-13.653-93.298-12.971-145.067l0.341-25.031-10.24-0.341c-24.69-0.91-70.428 7.737-110.137 20.594-9.216 2.958-11.264 3.982-11.833 6.258-1.024 3.982 0.341 48.356 1.934 59.961 2.958 22.869 6.372 41.415 9.785 53.362 0.91 2.958 1.593 6.030 1.593 6.827 0 2.048 8.42 27.534 13.653 41.074 4.892 12.743 16.612 37.433 22.642 47.787 1.82 3.186 4.437 7.737 5.803 10.24s4.779 7.737 7.509 11.719c2.731 3.982 5.006 7.396 5.006 7.737s2.276 3.527 4.892 7.054c4.779 6.144 7.623 10.695 7.623 12.060 0 0.341-5.234 3.186-11.605 6.485-6.485 3.186-13.881 7.282-16.612 9.102s-5.234 3.3-5.575 3.3c-1.252 0-21.276 16.725-25.372 21.276-8.306 8.875-19.001 24.235-22.187 31.744-8.761 20.366-11.378 36.636-10.468 64.171 1.024 26.852 5.461 45.966 15.36 65.991 4.779 9.444 5.234 10.24 12.857 20.48 19.228 25.486 48.356 42.667 84.082 49.493 10.126 1.934 15.929 2.048 15.929 0.341zM799.858 898.105c21.39-3.982 38.457-10.695 55.751-22.073 11.378-7.509 26.055-21.732 32.882-31.972 8.42-12.402 16.156-29.127 18.432-39.708 0.569-2.731 1.252-5.348 1.593-5.916s1.707-7.054 2.844-14.45c4.096-24.576 2.731-53.134-3.413-72.704-5.12-16.27-15.246-32.54-28.786-46.308-8.761-8.875-22.3-20.139-24.235-20.139-0.455 0-1.707-0.683-2.617-1.593-2.162-1.82-12.402-7.509-23.097-12.857-7.168-3.527-9.33-6.030-6.599-7.737 1.707-1.138 24.235-35.612 30.379-46.649 7.509-13.653 16.384-32.199 21.39-44.942 1.024-2.844 2.503-6.372 3.072-7.964 3.641-9.102 9.671-28.9 13.426-44.373 9.216-38.116 13.312-84.309 10.354-115.826-1.024-10.468-2.617-13.653-4.665-9.216-3.982 8.761-31.061 47.218-45.966 65.195-25.941 31.175-56.661 62.009-86.016 86.471-5.916 4.892-12.060 9.899-13.426 11.15-3.641 2.958-32.654 24.348-39.595 29.127-10.24 7.054-31.403 20.708-31.858 20.708-0.341 0-2.731 1.479-5.348 3.186-2.617 1.82-5.575 3.641-6.485 4.096s-2.731 1.365-3.982 2.162c-23.211 13.995-61.44 33.223-88.747 44.601-5.575 2.276-12.174 5.006-14.564 6.030-2.389 0.91-4.551 2.162-4.892 2.731-0.683 1.024 13.198 29.582 18.887 39.026 1.82 3.186 3.755 6.485 4.21 7.396s3.413 5.461 6.485 10.012c3.186 4.551 6.372 9.216 6.94 10.24 6.827 11.605 49.152 58.254 52.907 58.254 0.569 0 2.731-0.683 4.779-1.593s6.030-2.503 8.875-3.641c2.844-1.024 13.312-5.916 23.324-10.809 20.48-9.899 18.432-9.671 36.978-4.551 43.918 11.947 74.183 33.223 86.13 60.416 4.324 9.899 5.461 19.228 3.868 31.516-1.365 10.581-2.048 13.426-6.599 28.786-2.503 8.647-8.875 25.031-13.54 35.044-2.162 4.551-3.868 8.761-3.868 9.33 0 1.593 4.665 1.365 14.791-0.455zM552.391 775.68c20.366-2.503 25.714-3.641 26.396-5.234 0.341-1.024-1.707-4.21-4.892-7.737-29.696-32.199-58.823-80.213-74.98-123.563-0.796-2.162-3.072-8.078-5.006-13.198-1.934-5.006-3.527-9.899-3.527-10.809 0-0.796-0.683-3.527-1.593-6.144-2.162-6.372-4.551-15.474-6.94-26.169-1.024-5.006-2.617-12.288-3.527-16.156s-1.593-8.761-1.593-10.809c0-2.048-0.569-5.575-1.138-7.737-1.252-4.096-2.503-17.067-4.779-49.038-1.138-16.156-1.024-22.983 0.683-46.080 1.024-15.019 2.617-31.289 3.527-36.295 3.072-18.318 3.072-18.432 0.455-20.821-1.934-1.934-25.486-13.995-37.092-19.115-32.313-14.336-68.153-25.031-101.604-30.492-20.252-3.3-25.6-3.868-27.42-2.844-5.006 2.617-3.868 68.608 1.934 113.664 4.21 32.768 8.42 53.362 17.18 84.196 21.163 74.411 61.895 144.612 114.005 196.949 12.743 12.743 32.199 29.81 40.96 35.954l5.234 3.641 26.738-0.341c14.677-0.228 31.403-1.024 36.978-1.82zM546.816 570.766c3.072-1.252 8.306-3.527 11.605-5.12 3.3-1.479 6.258-2.731 6.599-2.731 0.455 0 10.24-4.665 21.959-10.468 22.187-11.036 48.469-25.486 59.62-32.882 3.641-2.503 6.94-4.437 7.168-4.437 0.341 0 3.755-2.162 7.623-4.779 3.868-2.731 7.964-5.348 8.988-6.030 6.258-3.527 41.87-29.81 52.565-38.571 33.564-27.989 59.961-54.044 83.854-83.172 25.259-30.834 44.032-59.62 63.26-97.28 10.354-20.139 11.605-23.666 10.24-27.42-0.569-1.479-1.707-4.551-2.503-6.713-6.258-16.953-20.139-46.763-27.876-59.733-1.82-3.072-3.755-6.485-4.21-7.396-2.958-6.258-28.672-42.212-36.75-51.2-13.881-15.815-19.797-21.504-20.935-20.594-0.683 0.569-1.934 3.527-2.731 6.599-3.186 11.15-10.468 33.109-15.019 44.715-1.365 3.413-2.844 7.509-3.3 9.102-1.365 4.096-17.522 36.864-22.3 44.942-2.162 3.755-4.324 7.623-4.665 8.533-1.934 4.096-18.432 28.672-26.396 39.14-33.678 44.487-80.441 86.244-128.796 115.257-13.653 8.192-16.839 9.899-34.361 18.773-8.647 4.324-16.156 8.875-16.839 10.012-0.683 1.252-1.707 5.916-2.276 10.468s-1.479 10.923-2.162 13.995c-0.569 3.186-1.707 15.474-2.503 27.534-1.934 30.379 0.91 72.932 6.485 95.004 0.91 3.641 1.593 7.851 1.593 9.557 0 3.982 1.934 7.282 4.437 7.282 1.138 0 4.551-1.024 7.623-2.389zM530.66 346.169c6.599-3.413 13.995-7.396 16.384-8.875 2.276-1.479 5.006-3.072 5.916-3.527 7.396-3.527 44.601-29.468 50.745-35.385 0.683-0.569 4.665-3.982 8.761-7.396 9.899-8.078 37.092-35.84 45.511-46.194 3.527-4.437 6.485-9.102 6.485-10.354 0-1.479-2.276-3.527-7.054-6.485-3.982-2.276-11.264-6.827-16.27-9.899-5.006-3.186-10.126-6.258-11.378-6.827s-4.096-2.162-6.258-3.413c-20.935-12.743-56.434-29.696-92.16-44.032-10.012-4.096-46.308-16.156-56.889-19.001-15.929-4.21-19.001-5.006-26.169-6.713-17.636-3.982-35.271-7.054-60.871-10.468-20.821-2.844-82.034-2.844-100.124 0-31.516 4.779-40.732 6.599-58.596 11.264-28.9 7.509-28.558 7.282-38.002 20.935-8.306 11.947-15.36 22.869-19.342 29.924-1.252 2.162-3.413 6.030-4.779 8.533-11.15 19.797-22.756 47.332-30.151 71.111-7.282 23.438-9.216 32.996-6.599 32.996 0.569 0 5.575-1.252 11.036-2.617 43.122-11.719 77.938-16.156 124.814-16.156 45.17 0 69.291 2.844 113.778 13.198 8.192 1.934 16.839 4.096 19.342 5.006 2.503 0.796 10.24 3.3 17.067 5.575 6.94 2.162 15.36 5.12 18.773 6.372 3.413 1.365 7.509 2.844 9.102 3.413 12.288 4.096 49.38 22.414 64.853 31.972 2.844 1.82 6.144 3.3 7.509 3.3 1.252 0 7.851-2.844 14.564-6.258zM705.65 170.382c7.737-16.27 8.647-18.318 14.677-33.906 1.024-2.731 4.096-12.060 7.168-21.845 0.796-2.844 2.389-8.192 3.3-11.947 1.024-3.755 2.276-8.875 2.958-11.378 0.569-2.503 1.934-8.647 2.958-13.653l1.934-9.102-3.868-3.186c-2.048-1.707-4.892-3.755-6.258-4.551-1.252-0.796-9.216-5.461-17.636-10.581-29.013-17.636-57.344-30.037-91.364-40.050-71.225-20.821-145.636-20.821-217.316-0.114-4.324 1.252-9.444 2.731-11.378 3.3-23.097 6.599-58.596 22.756-84.764 38.684-17.522 10.581-26.51 17.18-25.259 18.432 0.683 0.683 7.737 0.341 18.318-0.796 28.558-3.072 98.076-0.683 114.802 3.982 2.276 0.569 6.030 1.138 8.192 1.138s7.851 0.796 12.516 1.707c4.665 1.024 12.402 2.617 17.067 3.641 20.366 4.21 35.84 8.306 64.284 17.067 7.623 2.389 20.252 6.94 27.648 10.126 2.048 0.91 4.324 1.593 5.006 1.593 2.731 0 38.116 15.588 60.644 26.738 27.876 13.881 33.109 16.725 55.068 29.924 17.749 10.809 18.887 11.492 26.965 17.067 6.713 4.551 6.144 5.006 14.336-12.288z" />
</font>
</defs>
</svg>
